[IrizaRaws] Gyokou no Nikuko-chan (BDRip 1920x804 x264 10bit DTSx3)

Category:
Date:
2022-06-20 16:57 UTC
Submitter:
Seeders:
3
Information:
No information.
Leechers:
5
File size:
23.8 GiB
Completed:
48
Info hash:
2c0b24e680cd56728a276cebd8b2666d391946b3
Hello! My rips are made from Japanese BDMV, unless stated otherwise. In terms of video quality, my raws should be comparable to ReinForce (since I started from their settings, and then modified it). I don’t use AA, blur, denoise and other such “enhancements”. Basically, the idea of my encodes will be: as similar to BDMV as possible, while reducing size 3-4 times. Also I will rip Audio Commentaries, interview’s and such things (everything, that’s on BD). Again, If you found any Bugs, mistakes, problems etc. Please comment! If needed I will reencode. About this Anime: https://myanimelist.net/anime/45620 https://anidb.net/anime/15963 SEED PLEASE! Acknowledgments for BDMV: Ronny & Senren@SweetSub Acknowledgments for Soundtrack: 無損音樂及Hi-res聲明 ED Song 由天使動漫xuwunixi自購 https://www.tsdm39.net/forum.php?mod=viewthread&tid=1051136 動漫音樂微博,最新自購無損音樂更新情況 https://weibo.com/dmmusic 天使動漫TSDM自購,天使動漫音樂區原貼鏈接 https://www.tsdm39.net/forum.php?mod=forumdisplay&fid=247 MediaInfo: General Unique ID : 86149678600111527660625084860068063958 (0x40CFD3171EA6B6920727713F3704EAD6) Complete name : D:\work\Rip\Gyokou no Nikuko-chan\[IrizaRaws] Gyokou no Nikuko-chan (BDRip 1920x804 x264 10bit DTSx3)\[IrizaRaws] Gyokou no Nikuko-chan (BDRip 1920x804 x264 10bit DTSx3).mkv Format : Matroska Format version : Version 4 / Version 2 File size : 8.09 GiB Duration : 1 h 36 min Overall bit rate : 12.0 Mb/s Encoded date : UTC 2022-06-19 19:07:51 Writing application : mkvmerge v66.0.0 ('Josie') 64-bit Writing library : libebml v1.4.2 + libmatroska v1.6.4 Video ID : 1 Format : AVC Format/Info : Advanced Video Codec Format profile : High 10@L5.2 Format settings : CABAC / 8 Ref Frames Format settings, CABAC : Yes Format settings, RefFrames : 8 frames Codec ID : V_MPEG4/ISO/AVC Duration : 1 h 36 min Bit rate : 6 798 kb/s Width : 1 920 pixels Height : 804 pixels Display aspect ratio : 2.40:1 Frame rate mode : Constant Frame rate : 24.000 FPS Color space : YUV Chroma subsampling : 4:2:0 Bit depth : 10 bits Scan type : Progressive Bits/(Pixel*Frame) : 0.183 Stream size : 4.57 GiB (57%) Writing library : x264 core 164 r3094 bfc87b7 Encoding settings : cabac=1 / ref=8 / deblock=1:-2:-2 / analyse=0x3:0x113 / me=umh / subme=9 / psy=1 / psy_rd=0.70:0.00 / mixed_ref=0 / me_range=32 / chroma_me=1 / trellis=2 / 8x8dct=1 / cqm=0 / deadzone=21,11 / fast_pskip=0 / chroma_qp_offset=-2 / threads=22 / lookahead_threads=3 / sliced_threads=0 / nr=0 / decimate=1 / interlaced=0 / bluray_compat=0 / constrained_intra=0 / bframes=9 / b_pyramid=2 / b_adapt=2 / b_bias=0 / direct=0 / weightb=1 / open_gop=0 / weightp=2 / keyint=250 / keyint_min=23 / scenecut=40 / intra_refresh=0 / rc=crf / mbtree=0 / crf=17.5 / qcomp=1.00 / qpmin=0 / qpmax=40 / qpstep=4 / ip_ratio=1.40 / pb_ratio=1.30 / aq=1:1.00 Language : English Default : Yes Forced : No Audio #1 ID : 2 Format : DTS Format/Info : Digital Theater Systems Format profile : MA / Core Mode : 16 Format settings, Endianness : Big Codec ID : A_DTS Duration : 1 h 36 min Bit rate mode : Variable / Constant Bit rate : 2 048 kb/s / 1 509 kb/s Channel(s) : 6 channels Channel positions : Front: L C R, Side: L R, LFE Sampling rate : 48.0 kHz Frame rate : 93.750 FPS (512 SPF) Bit depth : 16 bits Compression mode : Lossless / Lossy Stream size : 1.35 GiB (17%) Title : Main DTS 5.1 Language : Japanese Default : Yes Forced : No Audio #2 ID : 3 Format : DTS Format/Info : Digital Theater Systems Format profile : MA / Core Mode : 16 Format settings, Endianness : Big Codec ID : A_DTS Duration : 1 h 36 min Bit rate mode : Variable / Constant Bit rate : 1 536 kb/s / 1 509 kb/s Channel(s) : 2 channels Channel positions : Front: L R Sampling rate : 48.0 kHz Frame rate : 93.750 FPS (512 SPF) Bit depth : 16 bits Compression mode : Lossless / Lossy Stream size : 1.05 GiB (13%) Title : Main DTS 2.0 Language : Japanese Default : Yes Forced : No Audio #3 ID : 4 Format : DTS Format/Info : Digital Theater Systems Format profile : MA / Core Mode : 16 Format settings, Endianness : Big Codec ID : A_DTS Duration : 1 h 36 min Bit rate mode : Variable / Constant Bit rate : 1 536 kb/s / 1 509 kb/s Channel(s) : 2 channels Channel positions : Front: L R Sampling rate : 48.0 kHz Frame rate : 93.750 FPS (512 SPF) Bit depth : 16 bits Compression mode : Lossless / Lossy Stream size : 1.05 GiB (13%) Title : Audio Guide Language : Japanese Default : Yes Forced : No Text ID : 5 Format : PGS Muxing mode : zlib Codec ID : S_HDMV/PGS Codec ID/Info : Picture based subtitle format used on BDs/HD-DVDs Duration : 1 h 36 min Bit rate : 205 kb/s Count of elements : 10253 Stream size : 141 MiB (2%) Language : Japanese Default : Yes Forced : No Menu 00:00:00.000 : en:Chapter 01 00:05:38.000 : en:Chapter 02 00:05:54.500 : en:Chapter 03 00:10:48.833 : en:Chapter 04 00:16:44.250 : en:Chapter 05 00:21:37.416 : en:Chapter 06 00:31:09.083 : en:Chapter 07 00:37:40.541 : en:Chapter 08 00:41:04.041 : en:Chapter 09 00:50:43.458 : en:Chapter 10 00:57:09.333 : en:Chapter 11 01:04:32.500 : en:Chapter 12 01:06:30.875 : en:Chapter 13 01:11:17.666 : en:Chapter 14 01:15:12.000 : en:Chapter 15 01:18:57.166 : en:Chapter 16 01:27:26.833 : en:Chapter 17 01:30:33.875 : en:Chapter 18 01:32:02.750 : en:Chapter 19

File list

  • [IrizaRaws] Gyokou no Nikuko-chan (BDRip 1920x804 x264 10bit DTSx3)
    • Bonus
      • Menu
        • [IrizaRaws] Gyokou no Nikuko-chan Audio Guide Menu (BDRip 1920x1080 x264 10bit DTS).mkv (8.7 MiB)
        • [IrizaRaws] Gyokou no Nikuko-chan Menu (BDRip 1920x1080 x264 10bit DTS).mkv (47.3 MiB)
        • [IrizaRaws] Gyokou no Nikuko-chan SPBD Menu PNG.png (3.7 MiB)
      • PV
        • [IrizaRaws] Gyokou no Nikuko-chan PV - 01 (BDRip 1920x816 x264 10bit DTS).mkv (25.9 MiB)
        • [IrizaRaws] Gyokou no Nikuko-chan PV - 02 (BDRip 1920x816 x264 10bit DTS).mkv (70.6 MiB)
      • RL
        • [IrizaRaws] Gyokou no Nikuko-chan RL - 01 (BDRip 1920x1080 x264 10bit DTS).mkv (5.8 GiB)
        • [IrizaRaws] Gyokou no Nikuko-chan RL - 02 (BDRip 1920x1080 x264 10bit DTS).mkv (2.3 GiB)
        • [IrizaRaws] Gyokou no Nikuko-chan RL - 03 (BDRip 1920x1080 x264 10bit DTS).mkv (3.6 GiB)
        • [IrizaRaws] Gyokou no Nikuko-chan RL - 04 (BDRip 1920x1080 x264 10bit DTS).mkv (1.2 GiB)
        • [IrizaRaws] Gyokou no Nikuko-chan RL - 05 (BDRip 1920x1080 x264 10bit DTS).mkv (2.1 GiB)
      • Scans
        • 01.png (30.8 MiB)
        • 02.png (17.3 MiB)
        • 03.png (31.6 MiB)
        • 04.png (17.6 MiB)
        • 05.png (13.9 MiB)
        • 06.png (14.2 MiB)
        • 07.png (51.5 MiB)
        • 08.png (15.2 MiB)
        • 09.png (16.3 MiB)
        • 10.png (28.2 MiB)
        • 11.png (28.8 MiB)
      • [IrizaRaws] Gyokou no Nikuko-chan Logo - 01 (BDRip 1920x1080 x264 10bit DTS).mkv (1.7 MiB)
      • [IrizaRaws] Gyokou no Nikuko-chan Logo - 02 (BDRip 1920x1080 x264 10bit).mkv (499.0 KiB)
      • [IrizaRaws] Gyokou no Nikuko-chan Logo - 03 (BDRip 1920x1080 x264 10bit).mkv (114.1 KiB)
      • [IrizaRaws] Gyokou no Nikuko-chan Logo - 04 (BDRip 1920x1080 x264 10bit DTS).mkv (1.7 MiB)
    • Soundtrack
      • CDs
        • [EAC] [210526] 漁港の肉子ちゃん ED「たけてん」/GReeeeN (wav)
          • 01. たけてん.wav (39.8 MiB)
          • cover.jpg (666.1 KiB)
          • 天使動漫@55571自購.txt (71 Bytes)
        • [EAC] [210526] 漁港の肉子ちゃん 主題歌「イメージの詩」/稲垣来泉 (flac)
          • 01. イメージの詩.flac (42.1 MiB)
          • cover.jpg (490.3 KiB)
        • [EAC] [210609] 漁港の肉子ちゃん オリジナル・サウンドトラック (flac)
          • 01. イメージの詩.flac (41.9 MiB)
          • 02. 漁港の肉子ちゃん.flac (19.0 MiB)
          • 03. 肉子ちゃんは私の母親だ.flac (6.4 MiB)
          • 04. 肉子ちゃんはこの港で暮らすことにした.flac (7.5 MiB)
          • 05. 肉子ちゃん”おはよう”.flac (14.1 MiB)
          • 06. ええ食べっぷりやなあ.flac (8.6 MiB)
          • 07. あそこで皆生きてる、すげえな.flac (8.1 MiB)
          • 08. 「とっておき」だて.flac (9.7 MiB)
          • 09. 肉子ちゃんは優しいのである.flac (14.3 MiB)
          • 10. 「キクリン、何か言うた?」.flac (6.8 MiB)
          • 11. いつだって、全力で肉子ちゃんだ.flac (8.5 MiB)
          • 12. ゆっくり家族になっていく.flac (16.1 MiB)
          • 13. クラスの誰かに会いませんように.flac (6.6 MiB)
          • 14. 私は決められない.flac (12.6 MiB)
          • 15. 私、なんて狡い子なんだろう.flac (12.3 MiB)
          • 16. 肉子、落ちつけ~.flac (10.1 MiB)
          • 17. お母さん、大好き.flac (5.9 MiB)
          • 18. 普通がいちばんええんやで.flac (13.4 MiB)
          • 19. みんな、望まれて生まれてきたんやで.flac (13.7 MiB)
          • 20. ささやかな希望、あふれ出る光.flac (10.0 MiB)
          • 21. たけてん.flac (29.5 MiB)
          • cover1a.jpg (309.6 KiB)
          • cover1b.jpg (165.1 KiB)
    • [IrizaRaws] Gyokou no Nikuko-chan (BDRip 1920x804 x264 10bit DTSx3).mkv (8.1 GiB)