[MagicStar] Tantei ga Hayasugiru Haru no Trick Gaeshi Matsuri EP10 END [WEBDL] [HULU] [JPN_SUB]

Category:
Date:
2022-06-18 13:50 UTC
Submitter:
Seeders:
5
Information:
Leechers:
1
File size:
1.5 GiB
Completed:
771
Info hash:
735b083b987bbb6ede73f6b99e8b93ac1c0624f9
HD 1080p from HULU JAPAN. ![alt text](https://i.ibb.co/PZsQ5Jh/b26cc994-cf1d-4a58-bc22-56b73e71c84cb.jpg) ![alt text](https://i.ibb.co/3k7t6QV/Tantei-ga-Hayasugiru-Haru-no-Trick-Gaeshi-Matsuri-EP10-1080p-HULU-WEB-DL-AAC2-0-H-264-Magic-Star-mkv.jpg) ``` General Unique ID : 177011940189097409429204506318001404197 (0x852B4275F5C17E18D6DB283C1FFFF925) Complete name : Tantei.ga.Hayasugiru.Haru.no.Trick.Gaeshi.Matsuri.EP10.1080p.HULU.WEB-DL.AAC2.0.H.264-MagicStar.mkv Format : Matroska Format version : Version 4 File size : 1.10 GiB Duration : 41 min 49 s Overall bit rate : 3 765 kb/s Encoded date : UTC 2022-06-17 00:06:48 Writing application : mkvmerge v50.0.0 ('Awakenings') 64-bit Writing library : libebml v1.4.0 + libmatroska v1.6.2 Cover : Yes Attachments : cover.png Video ID : 1 Format : AVC Format/Info : Advanced Video Codec Format profile : High@L4 Format settings : CABAC / 4 Ref Frames Format settings, CABAC : Yes Format settings, Reference fra : 4 frames Codec ID : V_MPEG4/ISO/AVC Duration : 41 min 49 s Bit rate : 3 637 kb/s Width : 1 920 pixels Height : 1 080 pixels Display aspect ratio : 16:9 Frame rate mode : Constant Frame rate : 29.970 (29970/1000) FPS Original frame rate : 29.970 (30000/1001) FPS Color space : YUV Chroma subsampling : 4:2:0 Bit depth : 8 bits Scan type : Progressive Bits/(Pixel*Frame) : 0.059 Stream size : 1.06 GiB (97%) Default : Yes Forced : No Color range : Limited Color primaries : BT.709 Transfer characteristics : BT.709 Matrix coefficients : BT.709 Audio ID : 2 Format : AAC LC Format/Info : Advanced Audio Codec Low Complexity Codec ID : A_AAC-2 Duration : 41 min 49 s Bit rate : 125 kb/s Channel(s) : 2 channels Channel layout : L R Sampling rate : 48.0 kHz Frame rate : 46.875 FPS (1024 SPF) Compression mode : Lossy Stream size : 37.5 MiB (3%) Language : Japanese Default : Yes Forced : No ```

File list