[MagicStar] Waru ~Hataraku no ga Kakko Warui Nante Dare ga Itta?~ EP10 END [WEBDL] [1080p] [HULU] [JPN_SUB]

Category:
Date:
2022-06-18 13:44 UTC
Submitter:
Seeders:
4
Information:
Leechers:
0
File size:
1.2 GiB
Completed:
906
Info hash:
ab1afbd27fc03b60cf4984384c20af0f0225b1fc
HD 1080p from HULU JAPAN. ![alt text](https://i.ibb.co/bbCgF8n/b6bac335-bcdd-4d12-8068-520c87b44e26b.jpg) ![alt text](https://i.ibb.co/v4pC6Ff/Waru-Hataraku-no-ga-Kakko-Warui-Nante-Dare-ga-Itta-EP10-1080p-HULU-WEB-DL-AAC2-0-H-264-Magic-Star-mk.jpg) ``` General Unique ID : 50916125211438274188404662352582707664 (0x264E16C9FE882AD994E31D09265A89D0) Complete name : Waru.Hataraku.no.ga.Kakko.Warui.Nante.Dare.ga.Itta.EP10.1080p.HULU.WEB-DL.AAC2.0.H.264-MagicStar.mkv Format : Matroska Format version : Version 4 File size : 1.23 GiB Duration : 51 min 6 s Overall bit rate : 3 455 kb/s Encoded date : UTC 2022-06-17 00:07:59 Writing application : mkvmerge v50.0.0 ('Awakenings') 64-bit Writing library : libebml v1.4.0 + libmatroska v1.6.2 Cover : Yes Attachments : cover.png Video ID : 1 Format : AVC Format/Info : Advanced Video Codec Format profile : High@L4 Format settings : CABAC / 4 Ref Frames Format settings, CABAC : Yes Format settings, Reference fra : 4 frames Codec ID : V_MPEG4/ISO/AVC Duration : 51 min 5 s Bit rate : 3 327 kb/s Width : 1 920 pixels Height : 1 080 pixels Display aspect ratio : 16:9 Frame rate mode : Constant Frame rate : 29.970 (29970/1000) FPS Original frame rate : 29.970 (30000/1001) FPS Color space : YUV Chroma subsampling : 4:2:0 Bit depth : 8 bits Scan type : Progressive Bits/(Pixel*Frame) : 0.054 Stream size : 1.19 GiB (96%) Default : Yes Forced : No Color range : Limited Color primaries : BT.709 Transfer characteristics : BT.709 Matrix coefficients : BT.709 Audio ID : 2 Format : AAC LC Format/Info : Advanced Audio Codec Low Complexity Codec ID : A_AAC-2 Duration : 51 min 6 s Bit rate : 125 kb/s Channel(s) : 2 channels Channel layout : L R Sampling rate : 48.0 kHz Frame rate : 46.875 FPS (1024 SPF) Compression mode : Lossy Stream size : 45.8 MiB (4%) Language : Japanese Default : Yes Forced : No ```

File list