[MagicStar] Nikutai no Mon 1964 [WEBDL] [1080p] [AMZN]

Category:
Date:
2022-06-14 11:13 UTC
Submitter:
Seeders:
2
File size:
6.3 GiB
Completed:
207
Info hash:
d093151955da34cee2fa6f4e5b37f2e468a92fb9
HD 1080p from Prime Video. Use CBR bitrate mode. ************** We are planning to upload all prime video japan Dramas and Movies, we need your Support! ************** Support Us USDT (Mainnet: TRC20): TZEUquHY1Uy62JLpbe4MnSbxAyqd2kJdk6 LTC (Mainnet: Litecoin): ltc1qqth67fvzn6cunklklx2072havnlq4sfamnw9p9 BTC (Mainnet: OMNI): 13UiDwv4CY9FrxnM6ZFiiaKU4EoKQ1CzAd ETH (Mainnet: ERC20): 0xd663d775e3d53d9e068f294af22883e19cc0fdd8 ************** ![alt text](https://i.ibb.co/BKsQvTv/71-Ka60e-rn-L.jpg) ![alt text](https://i.ibb.co/VTmBgF6/Nikutai-no-Mon-1964-1080p-AMZN-WEB-DL-DDP2-0-H-264-Magic-Star-mkv.jpg) ``` General Unique ID : 250139151058108992543588859209419635435 (0xBC2F0C52289CEAC84D9A8D69B548BAEB) Complete name : Nikutai.no.Mon.1964.1080p.AMZN.WEB-DL.DDP2.0.H.264-MagicStar.mkv Format : Matroska Format version : Version 4 File size : 6.29 GiB Duration : 1 h 30 min Overall bit rate mode : Constant Overall bit rate : 9 974 kb/s Encoded date : UTC 2022-06-14 10:39:43 Writing application : mkvmerge v50.0.0 ('Awakenings') 64-bit Writing library : libebml v1.4.0 + libmatroska v1.6.2 Cover : Yes Attachments : cover.png Video ID : 1 Format : AVC Format/Info : Advanced Video Codec Format profile : High@L4 Format settings : CABAC / 4 Ref Frames Format settings, CABAC : Yes Format settings, Reference fra : 4 frames Codec ID : V_MPEG4/ISO/AVC Duration : 1 h 30 min Bit rate mode : Constant Bit rate : 10 000 kb/s Width : 1 920 pixels Height : 800 pixels Display aspect ratio : 2.40:1 Frame rate mode : Constant Frame rate : 23.976 (24000/1001) FPS Color space : YUV Chroma subsampling : 4:2:0 Bit depth : 8 bits Scan type : Progressive Bits/(Pixel*Frame) : 0.272 Stream size : 6.15 GiB (98%) Default : Yes Forced : No Color range : Limited Color primaries : BT.709 Transfer characteristics : BT.709 Matrix coefficients : BT.709 Audio ID : 2 Format : E-AC-3 Format/Info : Enhanced AC-3 Commercial name : Dolby Digital Plus Codec ID : A_EAC3 Duration : 1 h 30 min Bit rate mode : Constant Bit rate : 224 kb/s Channel(s) : 2 channels Channel layout : L R Sampling rate : 48.0 kHz Frame rate : 31.250 FPS (1536 SPF) Compression mode : Lossy Stream size : 145 MiB (2%) Language : Japanese Service kind : Complete Main Default : Yes Forced : No ```

File list