[MagicStar] Chotto Omoidashita Dake 2021 [WEBDL] [1080p] [AMZN]

Category:
Date:
2022-06-14 11:00 UTC
Submitter:
Seeders:
1
Information:
Leechers:
1
File size:
7.0 GiB
Completed:
348
Info hash:
05a53723c0c2aff8aa7ae461bbbb84523308edd7
HD 1080p from Prime Video. Use CBR bitrate mode. ************** We are planning to upload all prime video japan Dramas and Movies, we need your Support! ************** Support Us USDT (Mainnet: TRC20): TZEUquHY1Uy62JLpbe4MnSbxAyqd2kJdk6 LTC (Mainnet: Litecoin): ltc1qqth67fvzn6cunklklx2072havnlq4sfamnw9p9 BTC (Mainnet: OMNI): 13UiDwv4CY9FrxnM6ZFiiaKU4EoKQ1CzAd ETH (Mainnet: ERC20): 0xd663d775e3d53d9e068f294af22883e19cc0fdd8 ************** ![alt text](https://i.ibb.co/25GfsRw/9165eed-JEPL.jpg) ![alt text](https://i.ibb.co/4Tz0540/Chotto-Omoidashita-Dake-2021-1080p-AMZN-WEB-DL-DDP5-1-H-264-Magic-Star-mkv.jpg) ``` General Unique ID : 167381578016329346962771386796529084682 (0x7DEC84F26BA7B33B1F9FBE272A92E90A) Complete name : Chotto.Omoidashita.Dake.2021.1080p.AMZN.WEB-DL.DDP5.1.H.264-MagicStar.mkv Format : Matroska Format version : Version 4 File size : 6.98 GiB Duration : 1 h 54 min Overall bit rate mode : Constant Overall bit rate : 8 691 kb/s Encoded date : UTC 2022-06-13 11:22:57 Writing application : mkvmerge v50.0.0 ('Awakenings') 64-bit Writing library : libebml v1.4.0 + libmatroska v1.6.2 Cover : Yes Attachments : cover.png Video ID : 1 Format : AVC Format/Info : Advanced Video Codec Format profile : High@L4 Format settings : CABAC / 4 Ref Frames Format settings, CABAC : Yes Format settings, Reference fra : 4 frames Codec ID : V_MPEG4/ISO/AVC Duration : 1 h 54 min Bit rate mode : Constant Bit rate : 8 048 kb/s Nominal bit rate : 10 000 kb/s Width : 1 920 pixels Height : 1 040 pixels Display aspect ratio : 1.85:1 Frame rate mode : Constant Frame rate : 23.976 (24000/1001) FPS Color space : YUV Chroma subsampling : 4:2:0 Bit depth : 8 bits Scan type : Progressive Bits/(Pixel*Frame) : 0.168 Stream size : 6.46 GiB (93%) Default : Yes Forced : No Color range : Limited Color primaries : BT.709 Transfer characteristics : BT.709 Matrix coefficients : BT.709 Audio ID : 2 Format : E-AC-3 Format/Info : Enhanced AC-3 Commercial name : Dolby Digital Plus Codec ID : A_EAC3 Duration : 1 h 54 min Bit rate mode : Constant Bit rate : 640 kb/s Channel(s) : 6 channels Channel layout : L R C LFE Ls Rs Sampling rate : 48.0 kHz Frame rate : 31.250 FPS (1536 SPF) Compression mode : Lossy Stream size : 526 MiB (7%) Language : Japanese Service kind : Complete Main Default : Yes Forced : No ```

File list