[MagicStar] Souri no Otto 2021 [WEBDL] [1080p] [AMZN] [JPN_SUB]

Category:
Date:
2022-06-01 15:19 UTC
Submitter:
Seeders:
1
Information:
Leechers:
0
File size:
7.0 GiB
Completed:
508
Info hash:
6974e543cbc75c6e9d4dd165a2761e569c6240b7
HD 1080p from Prime Video. Use CBR bitrate mode. Japanese subtitles added. ************** We are planning to upload all prime video japan Dramas and Movies, we need your Support! ************** Support Us Ali (Zhifubao / QR code): https://i.ibb.co/FWV2ggm/1660626347125.png PayPalMe: https://www.paypal.com/paypalme/sakuragikenji ************** ![alt text](https://i.ibb.co/GnWjwp0/81q-Cv-Uthri-L.jpg) ![alt text](https://i.ibb.co/HLcQy8w/Souri-no-Otto-2021-1080p-AMZN-WEB-DL-DDP5-1-H-264-Magic-Star-mkv.jpg) ``` General Unique ID : 8441249875252372272648653619245967317 (0x659B9C048DC6CFD75395D1ABC2D67D5) Complete name : Souri.no.Otto.2021.1080p.AMZN.WEB-DL.DDP5.1.H.264-MagicStar.mkv Format : Matroska Format version : Version 4 File size : 7.02 GiB Duration : 2 h 1 min Overall bit rate mode : Constant Overall bit rate : 8 276 kb/s Encoded date : UTC 2022-06-01 04:58:33 Writing application : mkvmerge v50.0.0 ('Awakenings') 64-bit Writing library : libebml v1.4.0 + libmatroska v1.6.2 Cover : Yes Attachments : cover.png Video ID : 1 Format : AVC Format/Info : Advanced Video Codec Format profile : High@L4 Format settings : CABAC / 4 Ref Frames Format settings, CABAC : Yes Format settings, Reference fra : 4 frames Codec ID : V_MPEG4/ISO/AVC Duration : 2 h 1 min Bit rate mode : Constant Bit rate : 7 634 kb/s Nominal bit rate : 10 000 kb/s Width : 1 920 pixels Height : 800 pixels Display aspect ratio : 2.40:1 Frame rate mode : Constant Frame rate : 23.976 (24000/1001) FPS Color space : YUV Chroma subsampling : 4:2:0 Bit depth : 8 bits Scan type : Progressive Bits/(Pixel*Frame) : 0.207 Stream size : 6.48 GiB (92%) Default : Yes Forced : No Color range : Limited Color primaries : BT.709 Transfer characteristics : BT.709 Matrix coefficients : BT.709 Audio ID : 2 Format : E-AC-3 Format/Info : Enhanced AC-3 Commercial name : Dolby Digital Plus Codec ID : A_EAC3 Duration : 2 h 1 min Bit rate mode : Constant Bit rate : 640 kb/s Channel(s) : 6 channels Channel layout : L R C LFE Ls Rs Sampling rate : 48.0 kHz Frame rate : 31.250 FPS (1536 SPF) Compression mode : Lossy Stream size : 556 MiB (8%) Language : Japanese Service kind : Complete Main Default : Yes Forced : No ```

File list