[neoHEVC] [v2] Slow Loop [Season 1] [BD 1080p x265 HEVC AAC]

Category:
Date:
2022-05-26 11:26 UTC
Submitter:
Seeders:
16
Information:
Leechers:
0
File size:
3.5 GiB
Completed:
1227
Info hash:
b784744b88412cec75841df74c3d746974d136f6
![](https://i.imgur.com/RBlGp48.png) *Join **[Discord](https://discord.gg/47Q7FdB54e)** for Current Projects and Seed-Request in case of no available seeds.* #### **Slow Loop [Season 1]** Notes: . Added missing chapters for EP4 . Changed Main-Font . v2: Turned out the stutter was my fault after all. My torrent client somehow botched that download and it looked like the initial stuttering was there to begin with. Fixed with this here. Only concerns EP10 + EP11. The rest is the same. ![](https://i.imgur.com/4iegWLL.png) **[Trailer](https://www.youtube.com/watch?v=BHlAWGSYaiQ)** ![](https://i.imgur.com/3UxGuWB.png) ![](https://i.imgur.com/ZCtSawZ.png) **[MyAnimeList](https://myanimelist.net/anime/45425/Slow_Loop)** --- **Synopsis** Since childhood, Hiyori Yamakawa has witnessed her father's various eccentricities, but one activity she has always loved doing with him is fly fishing—a complicated yet rewarding method of catching fish. Even after his sudden death, Hiyori still visits the seaside in her spare time, savoring the joy that her father's memento brings her. Three years later, Hiyori's mother decides to remarry and arranges a dinner with her fiancé, his daughter, and Hiyori to celebrate. Anxious and wanting to pass the time, Hiyori goes to her usual fishing spot when a rather energetic girl named Koharu Minagi suddenly appears before her. The two soon become acquainted, with Koharu taking an interest in fly fishing herself. However, their meeting is more than just a coincidence: Koharu turns out to be Hiyori's future stepsibling, which is only the beginning of treasured memories the both of them will reel in as they foster their sisterhood. ![](https://i.imgur.com/Wfv4Ffn.png) --- **Source** 🗃️ Video (BDMV): **[[KoushinRip]](https://nyaa.si/view/1520150)** 🗃️ JPN Audio (BDMV): **[[KoushinRip]](https://nyaa.si/view/1520150)** 🗃️ Subtitles: **[[9volt]](https://nyaa.si/view/1475801)** 💬 *Subtitles Info: [9volt]* *Thank you all for making this possible <3* --- **Media Info** 🆔 [Full Mediainfo incl. Encoder Settings]() ``` General Unique ID : 279072194259865364410741141309570594181 (0xD1F3597C92D8F744270D2E7AFFFAB585) Complete name : Slow Loop - S01E01.mkv Format : Matroska Format version : Version 4 File size : 260 MiB Duration : 24 min 1 s Overall bit rate : 1 512 kb/s Movie name : Slow Loop - S01E01 Encoded date : UTC 2022-04-23 13:46:33 Writing application : mkvmerge v57.0.0 ('Till The End') 64-bit Writing library : libebml v1.4.2 + libmatroska v1.6.4 / Lavf58.76.100 Attachments : CRONOSPRO-BOLD.OTF / CRONOSPRO-BOLDIT.OTF / SecondaRound-Outline3Fill.ttf / amespro-regular.otf / Avenir-Black.ttf / FOT-MANYOKOINLARGESTD-B-EN.ttf / FOT-MatissePro-DB.otf / FOT-Yuruka Std UB Strp.otf / GN-Kin-iro_SansSerif.ttf / grain.ttf / Kozuka_Gothic_Pro_H.ttf / Polo Brush.ttf / Poppins-SemiBold.ttf / WIXCookHandStd-R.otf / 851MkPOP.ttf / Air Balloon - TTF.ttf / Cabin-BoldItalic.otf / DavysDingbats2.ttf / Cabin-Bold.otf Video ID : 1 Format : HEVC Format/Info : High Efficiency Video Coding Format profile : Main 10@L4@High Codec ID : V_MPEGH/ISO/HEVC Duration : 24 min 1 s Bit rate : 1 266 kb/s Width : 1 920 pixels Height : 1 080 pixels Display aspect ratio : 16:9 Frame rate mode : Constant Frame rate : 23.976 (24000/1001) FPS Color space : YUV Chroma subsampling : 4:2:0 Bit depth : 10 bits Bits/(Pixel*Frame) : 0.025 Stream size : 218 MiB (84%) Writing library : x265 3.5+1-f0c1022b6:[Windows][GCC 9.2.0][64 bit] 10bit Encoding settings : cpuid=1111039 / frame-threads=2 / numa-pools=4 / wpp / no-pmode / no-pme / no-psnr / no-ssim / log-level=2 / input-csp=1 / input-res=1920x1080 / interlace=0 / total-frames=0 / level-idc=40 / high-tier=1 / uhd-bd=0 / ref=5 / no-allow-non-conformance / no-repeat-headers / annexb / no-aud / no-hrd / info / hash=0 / no-temporal-layers / open-gop / min-keyint=24 / keyint=240 / gop-lookahead=0 / bframes=16 / b-adapt=2 / b-pyramid / bframe-bias=0 / rc-lookahead=120 / lookahead-slices=4 / scenecut=40 / hist-scenecut=0 / radl=0 / no-splice / no-intra-refresh / ctu=64 / min-cu-size=8 / rect / no-amp / max-tu-size=32 / tu-inter-depth=1 / tu-intra-depth=1 / limit-tu=0 / rdoq-level=1 / dynamic-rd=0.00 / no-ssim-rd / signhide / no-tskip / nr-intra=0 / nr-inter=0 / no-constrained-intra / no-strong-intra-smoothing / max-merge=3 / limit-refs=3 / limit-modes / me=3 / subme=3 / merange=57 / temporal-mvp / no-frame-dup / no-hme / weightp / no-weightb / no-analyze-src-pics / deblock=-1:-1 / no-sao / no-sao-non-deblock / rd=4 / selective-sao=0 / no-early-skip / rskip / no-fast-intra / no-tskip-fast / no-cu-lossless / no-b-intra / no-splitrd-skip / rdpenalty=0 / psy-rd=2.00 / psy-rdoq=2.00 / no-rd-refine / no-lossless / cbqpoffs=0 / crqpoffs=0 / rc=crf / crf=20.0 / qcomp=0.60 / qpstep=4 / stats-write=0 / stats-read=0 / vbv-maxrate=30000 / vbv-bufsize=30000 / vbv-init=0.9 / min-vbv-fullness=50.0 / max-vbv-fullness=80.0 / crf-max=0.0 / crf-min=0.0 / ipratio=1.40 / pbratio=1.30 / aq-mode=3 / aq-strength=0.80 / cutree / zone-count=0 / no-strict-cbr / qg-size=32 / no-rc-grain / qpmax=69 / qpmin=0 / no-const-vbv / sar=1 / overscan=0 / videoformat=5 / range=0 / colorprim=1 / transfer=1 / colormatrix=1 / chromaloc=0 / display-window=0 / cll=0,0 / min-luma=0 / max-luma=1023 / log2-max-poc-lsb=8 / vui-timing-info / vui-hrd-info / slices=1 / no-opt-qp-pps / no-opt-ref-list-length-pps / no-multi-pass-opt-rps / scenecut-bias=0.05 / hist-threshold=0.03 / no-opt-cu-delta-qp / no-aq-motion / no-hdr10 / no-hdr10-opt / no-dhdr10-opt / no-idr-recovery-sei / analysis-reuse-level=0 / analysis-save-reuse-level=0 / analysis-load-reuse-level=0 / scale-factor=0 / refine-intra=0 / refine-inter=0 / refine-mv=1 / refine-ctu-distortion=0 / no-limit-sao / ctu-info=0 / no-lowpass-dct / refine-analysis-type=0 / copy-pic=1 / max-ausize-factor=1.0 / no-dynamic-refine / no-single-sei / no-hevc-aq / no-svt / no-field / qp-adaptation-range=1.00 / scenecut-aware-qp=0conformance-window-offsets / right=0 / bottom=0 / decoder-max-rate=0 / no-vbv-live-multi-pass Default : Yes Forced : No Color range : Limited Color primaries : BT.709 Transfer characteristics : BT.709 Matrix coefficients : BT.709 Audio ID : 2 Format : AAC LC Format/Info : Advanced Audio Codec Low Complexity Codec ID : A_AAC-2 Duration : 24 min 1 s Bit rate : 124 kb/s Channel(s) : 2 channels Channel layout : L R Sampling rate : 48.0 kHz Frame rate : 46.875 FPS (1024 SPF) Compression mode : Lossy Stream size : 21.3 MiB (8%) Title : Japanese Language : Japanese Default : Yes Forced : No Text ID : 3 Format : ASS Codec ID : S_TEXT/ASS Codec ID/Info : Advanced Sub Station Alpha Duration : 23 min 47 s Bit rate : 2 786 b/s Count of elements : 2041 Compression mode : Lossless Stream size : 486 KiB (0%) Title : Dialogue Language : English Default : Yes Forced : No Menu 00:00:00.000 : Intro 00:02:36.532 : Part A 00:10:54.071 : Part B 00:22:12.624 : ED ```

File list

  • [neoHEVC] Slow Loop [Season 1] [BD 1080p x265 HEVC AAC]
    • Slow Loop - S01E01.mkv (259.9 MiB)
    • Slow Loop - S01E02.mkv (303.4 MiB)
    • Slow Loop - S01E03.mkv (247.5 MiB)
    • Slow Loop - S01E04.mkv (288.8 MiB)
    • Slow Loop - S01E05.mkv (244.0 MiB)
    • Slow Loop - S01E06.mkv (321.5 MiB)
    • Slow Loop - S01E07.mkv (341.3 MiB)
    • Slow Loop - S01E08.mkv (406.1 MiB)
    • Slow Loop - S01E09.mkv (364.9 MiB)
    • Slow Loop - S01E10.mkv (283.4 MiB)
    • Slow Loop - S01E11.mkv (250.0 MiB)
    • Slow Loop - S01E12.mkv (270.4 MiB)
Very Fast. Thank you!

neoborn (uploader)

User
**Shameless selfpromotion** If this doesnt still your hunger for cute girls and fish, **[check out this fishy anime here!](https://nyaa.si/view/1355756)**
There seems to be and issue on E02 at 7:52-7:59.. The video is freezing and won't move until i forcefully move the time to 8:00

neoborn (uploader)

User
**@Kumachi** That is probably caused by the roughly 2000 subtitles lines of that sign. Some players may have problems rendering thousands of lines for elaborate typesetted signs in a short duration and start stuttering or even stop entirely. You may want to try and check the same scene again with **mpv media player**. It's an awesome player and manages to render subtitles where other players gave up a long time ago.
On Ep12 16:25 there's seems to be a video error during the panning.
Oh I see, yea the problem seems to be gone when i turned off the subtitle... Guess i'll try that MPV later.