[2022-05-22] [Members only] [Hololive EN - Gawr Gura] YOU - RY_xz7TfFV0

Category:
Date:
2022-05-24 01:02 UTC
Submitter:
Seeders:
14
Information:
Leechers:
0
File size:
2.2 GiB
Completed:
106
Info hash:
8ed1477c4b594b15a3ddf1119ed80ec004ce7364
![Thumbnail](https://pbs.twimg.com/media/FTZo2o0WUAAyVoG?format=jpg&name=large) Format : MPEG-4 >Format profile : Base Media Codec ID : isom (isom/iso2/mp41) File size : 2.11 GiB Duration : 1 h 42 min Overall bit rate mode : Variable Overall bit rate : 2 940 kb/s Writing application : Lavf59.4.102 Cover : Yes Video >ID : 1 Format : vp09 Codec ID : vp09 Duration : 1 h 42 min Bit rate : 2 794 kb/s Width : 1 920 pixels Height : 1 080 pixels Display aspect ratio : 16:9 Frame rate mode : Variable Frame rate : 60.000 FPS Minimum frame rate : 58.824 FPS Maximum frame rate : 62.500 FPS Color space : YUV Bits/(Pixel*Frame) : 0.022 Stream size : 2.01 GiB (95%) Language : English Color range : Limited Color primaries : BT.709 Transfer characteristics : BT.709 Matrix coefficients : BT.709 Audio >ID : 2 Format : Opus Codec ID : Opus Duration : 1 h 42 min Duration_FirstFrame : 1 ms Bit rate mode : Variable Bit rate : 134 kb/s Compression mode : Lossy Stream size : 98.5 MiB (5%) Language : English Default : Yes Alternate group : 1

File list

  • [2022-05-22] [Members only] [Hololive EN - Gawr Gura] YOU - RY_xz7TfFV0
    • [2022-05-22] [Members only] [Hololive EN - Gawr Gura] YOU - RY_xz7TfFV0.description (0 Bytes)
    • [2022-05-22] [Members only] [Hololive EN - Gawr Gura] YOU - RY_xz7TfFV0.live_chat.json (61.7 MiB)
    • [2022-05-22] [Members only] [Hololive EN - Gawr Gura] YOU - RY_xz7TfFV0.mp4 (2.1 GiB)
    • [2022-05-22] [Members only] [Hololive EN - Gawr Gura] YOU - RY_xz7TfFV0.webp (24.8 KiB)
Thank you for this, this image lol