[2022-05-22] [Members only] 【NIJISANJI EN - Elira Pendora】 hxh2011 EPISODE 100!!!! WOWIE!!!! (episode 100 - ) - qZH8ogTZmfU

Category:
Date:
2022-05-24 00:44 UTC
Submitter:
Seeders:
0
Information:
Leechers:
1
File size:
4.7 GiB
Completed:
11
Info hash:
c99635805423c53f2cf0ff621092efba7946257d
![Thumbnail](https://i.ibb.co/RYKGZV1/2022-05-22-Members-only-NIJISANJI-EN-Elira-Pendora-hxh2011-EPISODE-100-WOWIE-episode-100-q-ZH8og-TZm.webp) Format : MPEG-4 >Format profile : Base Media Codec ID : isom (isom/iso2/mp41) File size : 4.64 GiB Duration : 5 h 42 min Overall bit rate mode : Variable Overall bit rate : 1 941 kb/s Writing application : Lavf59.4.102 Cover : Yes Video >ID : 1 Format : vp09 Codec ID : vp09 Duration : 5 h 42 min Bit rate : 1 830 kb/s Width : 1 920 pixels Height : 1 080 pixels Display aspect ratio : 16:9 Frame rate mode : Variable Frame rate : 60.000 FPS Minimum frame rate : 58.824 FPS Maximum frame rate : 62.500 FPS Bits/(Pixel*Frame) : 0.015 Stream size : 4.38 GiB (94%) Language : English Audio >ID : 2 Format : Opus Codec ID : Opus Duration : 5 h 42 min Duration_FirstFrame : 1 ms Bit rate mode : Variable Bit rate : 96.1 kb/s Compression mode : Lossy Stream size : 235 MiB (5%) Language : English Default : Yes Alternate group : 1

File list

  • [2022-05-22] [Members only] 【NIJISANJI EN - Elira Pendora】 hxh2011 EPISODE 100!!!! WOWIE!!!! (episode 100 - ) - qZH8ogTZmfU
    • [2022-05-22] [Members only] 【NIJISANJI EN - Elira Pendora】 hxh2011 EPISODE 100!!!! WOWIE!!!! (episode 100 - ) - qZH8ogTZmfU.description (1.7 KiB)
    • [2022-05-22] [Members only] 【NIJISANJI EN - Elira Pendora】 hxh2011 EPISODE 100!!!! WOWIE!!!! (episode 100 - ) - qZH8ogTZmfU.live_chat.json (36.2 MiB)
    • [2022-05-22] [Members only] 【NIJISANJI EN - Elira Pendora】 hxh2011 EPISODE 100!!!! WOWIE!!!! (episode 100 - ) - qZH8ogTZmfU.mp4 (4.6 GiB)
    • [2022-05-22] [Members only] 【NIJISANJI EN - Elira Pendora】 hxh2011 EPISODE 100!!!! WOWIE!!!! (episode 100 - ) - qZH8ogTZmfU.webp (54.3 KiB)