新劇場版 頭文字[イニシャル]D BATTLE DIGEST - New Initial D the Movie [Initial] D Battle Digest [BD 1080p]

Category:
Date:
2022-05-22 22:07 UTC
Submitter:
Seeders:
4
Information:
No information.
Leechers:
0
File size:
1.7 GiB
Completed:
887
Info hash:
7c04604e396727ba91dd1bef242204e2ec896057
新劇場版 頭文字[イニシャル]D BATTLE DIGEST - New Initial D the Movie [Initial] D Battle Digest [BD 1080p] [![COVER](https://static.wikia.nocookie.net/initiald/images/9/96/New_Initial_D_the_Movie_Battle_Digest_Cover.jpg/revision/latest/scale-to-width-down/599?cb=20211223041434)](https://static.wikia.nocookie.net/initiald/images/9/96/New_Initial_D_the_Movie_Battle_Digest_Cover.jpg/revision/latest?cb=20211223041434) New Initial D the Movie Battle Digest (新劇場版 頭文字D BATTLE DIGEST Shin Gekijō-ban Inisharu Dī BATTLE DIGEST) is a compilation film in the New Initial D the Movie series. It features the battle scenes from the Initial D Legends films with a new soundtrack, in a similar fashion to the Battle Stages. While the original films featured a J-Rock soundtrack, this film features a Eurobeat soundtrack. Aside from the battle scenes, it also has scenes where the characters from the films test drive their vehicles. click each image for full quality preview [![PREVIEW 1](https://i.imgur.com/xfp5JAXm.jpg)](https://i.imgur.com/xfp5JAX.png)[![PREVIEW 2](https://i.imgur.com/BXkl2gWm.jpg)](https://i.imgur.com/BXkl2gW.png) [![PREVIEW 3](https://i.imgur.com/EBJDzgOm.jpg)](https://i.imgur.com/EBJDzgO.png)[![PREVIEW 4](https://i.imgur.com/CtR0BU6m.jpg)](https://i.imgur.com/CtR0BU6.png) Mediainfo: General Complete name : 新劇場版 頭文字[イニシャル]D BATTLE DIGEST.mp4 Format : MPEG-4 Format profile : Base Media Codec ID : isom (isom/iso2/avc1/mp41) File size : 1.66 GiB Duration : 47 min 32 s Overall bit rate : 4 995 kb/s Writing application : Lavf57.52.100 Video ID : 1 Format : AVC Format/Info : Advanced Video Codec Format profile : High@L5 Format settings : CABAC / 6 Ref Frames Format settings, CABAC : Yes Format settings, Reference frames : 6 frames Codec ID : avc1 Codec ID/Info : Advanced Video Coding Duration : 47 min 32 s Bit rate : 4 667 kb/s Width : 1 920 pixels Height : 1 080 pixels Display aspect ratio : 16:9 Frame rate mode : Variable Frame rate : 23.976 FPS Color space : YUV Chroma subsampling : 4:2:0 Bit depth : 8 bits Scan type : Progressive Bits/(Pixel*Frame) : 0.094 Stream size : 1.55 GiB (93%) Writing library : x264 core 164 r3075 66a5bc1 Encoding settings : cabac=1 / ref=6 / deblock=1:-1:-1 / analyse=0x3:0x133 / me=umh / subme=9 / psy=1 / psy_rd=1.00:0.00 / mixed_ref=1 / me_range=24 / chroma_me=1 / trellis=2 / 8x8dct=1 / cqm=0 / deadzone=21,11 / fast_pskip=1 / chroma_qp_offset=-2 / threads=30 / lookahead_threads=2 / sliced_threads=0 / nr=0 / decimate=1 / interlaced=0 / bluray_compat=0 / constrained_intra=0 / bframes=3 / b_pyramid=2 / b_adapt=2 / b_bias=0 / direct=3 / weightb=1 / open_gop=0 / weightp=2 / keyint=600 / keyint_min=23 / scenecut=40 / intra_refresh=0 / rc_lookahead=60 / rc=crf / mbtree=1 / crf=20.0 / qcomp=0.80 / qpmin=0 / qpmax=69 / qpstep=4 / ip_ratio=1.40 / aq=3:0.80 Language : English Color range : Limited Color primaries : BT.709 Transfer characteristics : BT.709 Matrix coefficients : BT.709 Menus : 3 Codec configuration box : avcC Audio ID : 2 Format : AAC LC Format/Info : Advanced Audio Codec Low Complexity Codec ID : mp4a-40-2 Duration : 47 min 32 s Bit rate mode : Constant Bit rate : 320 kb/s Channel(s) : 2 channels Channel layout : L R Sampling rate : 48.0 kHz Frame rate : 46.875 FPS (1024 SPF) Compression mode : Lossy Stream size : 109 MiB (6%) Language : Japanese Default : Yes Alternate group : 1 Menus : 3 Menu #1 ID : 3 Format : Timed Text Codec ID : text Duration : 47 min 32 s Language : English Menu For : 1,2 00:00:00.000 : 第 01 章 Menu #2 00:00:00.054 : 第 01 章

File list

  • 新劇場版 頭文字[イニシャル]D BATTLE DIGEST.mp4 (1.7 GiB)

LetsPlayNintendoITA (uploader)

User
Found this one was missing on the site to have a full Initial D experience, found it around, quality is 1080p, attached screenshots and mediainfo, enjoy. if anyone has any idea on the source group or something feel welcome to write a comment, I'll add them to the release. thanks no subs. japanese only.
Thank you very much!
Thank you! Hoping for subs soon.
Still no subs? Bummer :(