[naiyas] SPY x FAMILY - S01E06 (WEB1080p HEVC10 E-AC-3 Multiple Subtitle).mkv

Category:
Date:
2022-05-19 05:37 UTC
Submitter:
Seeders:
11
Information:
Leechers:
1
File size:
795.4 MiB
Completed:
194
Info hash:
370468c965807e39886490eaf58695078d78f908
##### **Source & subs quality checker | CR WEBDL** **ripper OASC from dkb team** ##### **Subtitles** En, Spa-LA, Spa-(ES-EU), Fre, PT-BR, Ita, Ara, Ger, Rus ##### **Encoder** **naiyas/DarthMorlock** | Overall quality much better than CR *( Deband with detail preservation + AA + Dehalo )* **Full insert GJM OP/ED with Cyan Romaji I for the ED with Chapters | Amazon audio** ``` General Unique ID : 259635307506302269977308067603266779712 (0xC353F0FB4EE0D0E2DB369E065C49BA40) Complete name : F:\Anime 2022 (Spring)\[naiyas] SPY x FAMILY - S01 (WEB 1080p HEVC10 AAC Multiple Subtitle)\[naiyas] SPY x FAMILY - S01E06 (WEB1080p HEVC10 E-AC-3 Multiple Subtitle).mkv Format : Matroska Format version : Version 4 File size : 795 MiB Duration : 24 min 12 s Overall bit rate : 4 594 kb/s Movie name : [naiyas] SPY x FAMILY - S01E06 (WEB1080p HEVC10 E-AC-3 Multiple Subtitle) Encoded date : UTC 2022-05-19 05:24:33 Writing application : mkvmerge v57.0.0 ('Till The End') 64-bit Writing library : libebml v1.4.2 + libmatroska v1.6.4 Attachments : ArialRoundedMTStd-ExtraBold.otf / SourceHanSerifTC-SemiBold.O82N5532.otf / impact.ttf / detectivesinc.ttf / dfpgb5jh8.ttf / ElephantBells_Heavy.ttf / Fulbo-Argenta.otf / GandhiSans-Bold.otf / GandhiSans-BoldItalic.otf / Garamond_0.ttf / GrahamCrackerJF.ttf / grain.ttf / Hey Comic.otf / HighjinksBB.ttf / HypotheticalmoonofMercury.ttf / KaiminSoraHeavy.ttf / Lemon Jelly Personal Use.ttf / LLCHARLOTTE.TTF / Locobeans Fill Font.ttf / LondonTwo.ttf / Markus Ink.ttf / Nikopol Halftone.otf / Pacifico.ttf / PENBOX.otf / Plastik_Film.ttf / ranister.ttf / Reality Check DEMO.otf / seguisym.ttf / shark party.ttf / Smart_Kid.otf / SpanishStencil.ttf / StardosStencil-Bold.ttf / 6-3zRzz.ttf / 1942.ttf / AbyssTSFont.ttf / Bazinga-Regular.ttf / Cutlass Rough.ttf / Daily Life.ttf / arial.ttf / trebuc.ttf / georgia.ttf / cour.ttf / verdana.ttf / times.ttf / AdobeArabic-Bold.otf / comic.ttf / tahoma.ttf Video ID : 1 Format : HEVC Format/Info : High Efficiency Video Coding Format profile : Main 10@L5@Main Codec ID : V_MPEGH/ISO/HEVC Duration : 24 min 9 s Bit rate : 4 258 kb/s Width : 1 920 pixels Height : 1 080 pixels Display aspect ratio : 16:9 Frame rate mode : Constant Frame rate : 23.976 (24000/1001) FPS Color space : YUV Chroma subsampling : 4:2:0 Bit depth : 10 bits Bits/(Pixel*Frame) : 0.086 Stream size : 736 MiB (93%) Title : [DKB Team] naiyas HEVC10 Writing library : x265 3.5+37+12-4e46995bc:[Windows][MSVC 1931][64 bit] 10bit Encoding settings : cpuid=1111039 / frame-threads=4 / numa-pools=24 / wpp / no-pmode / no-pme / no-psnr / no-ssim / log-level=2 / input-csp=1 / input-res=1920x1080 / interlace=0 / total-frames=34764 / level-idc=0 / high-tier=1 / uhd-bd=0 / ref=6 / no-allow-non-conformance / no-repeat-headers / annexb / no-aud / no-eob / no-eos / no-hrd / info / hash=0 / no-temporal-layers / no-open-gop / min-keyint=23 / keyint=250 / gop-lookahead=0 / bframes=16 / b-adapt=2 / b-pyramid / bframe-bias=0 / rc-lookahead=90 / lookahead-slices=4 / scenecut=40 / no-hist-scenecut / radl=0 / no-splice / no-intra-refresh / ctu=64 / min-cu-size=8 / rect / no-amp / max-tu-size=32 / tu-inter-depth=1 / tu-intra-depth=1 / limit-tu=0 / rdoq-level=2 / dynamic-rd=0.00 / no-ssim-rd / signhide / no-tskip / nr-intra=0 / nr-inter=0 / no-constrained-intra / no-strong-intra-smoothing / max-merge=5 / limit-refs=0 / no-limit-modes / me=2 / subme=7 / merange=57 / temporal-mvp / no-frame-dup / no-hme / weightp / no-weightb / no-analyze-src-pics / deblock=1:-1 / no-sao / no-sao-non-deblock / rd=6 / selective-sao=0 / no-early-skip / no-rskip / no-fast-intra / no-tskip-fast / no-cu-lossless / no-b-intra / no-splitrd-skip / rdpenalty=0 / psy-rd=2.00 / psy-rdoq=1.00 / no-rd-refine / no-lossless / cbqpoffs=0 / crqpoffs=0 / rc=crf / crf=17.5 / qcomp=0.60 / qpstep=4 / stats-write=0 / stats-read=0 / ipratio=1.40 / pbratio=1.30 / aq-mode=3 / aq-strength=1.00 / aq-bias-strength=1.00 / no-cutree / zone-count=0 / no-strict-cbr / qg-size=32 / no-rc-grain / qpmax=69 / qpmin=0 / no-const-vbv / sar=0 / overscan=0 / videoformat=5 / range=0 / colorprim=1 / transfer=1 / colormatrix=1 / chromaloc=0 / display-window=0 / cll=0,0 / min-luma=0 / max-luma=1023 / log2-max-poc-lsb=8 / vui-timing-info / vui-hrd-info / slices=1 / no-opt-qp-pps / no-opt-ref-list-length-pps / no-multi-pass-opt-rps / scenecut-bias=0.05 / hist-threshold=0.03 / no-opt-cu-delta-qp / no-aq-motion / no-hdr10 / no-hdr10-opt / no-dhdr10-opt / no-idr-recovery-sei / analysis-reuse-level=0 / analysis-save-reuse-level=0 / analysis-load-reuse-level=0 / scale-factor=0 / refine-intra=0 / refine-inter=0 / refine-mv=2 / refine-ctu-distortion=0 / no-limit-sao / ctu-info=0 / no-lowpass-dct / refine-analysis-type=0 / copy-pic=1 / max-ausize-factor=1.0 / no-dynamic-refine / no-single-sei / no-hevc-aq / no-svt / no-field / qp-adaptation-range=1.00 / scenecut-aware-qp=0conformance-window-offsets / right=0 / bottom=0 / decoder-max-rate=0 / no-vbv-live-multi-pass Language : Japanese Default : Yes Forced : No Color range : Limited Color primaries : BT.709 Transfer characteristics : BT.709 Matrix coefficients : BT.709 Audio ID : 2 Format : E-AC-3 Format/Info : Enhanced AC-3 Commercial name : Dolby Digital Plus Codec ID : A_EAC3 Duration : 24 min 9 s Bit rate mode : Constant Bit rate : 224 kb/s Channel(s) : 2 channels Channel layout : L R Sampling rate : 48.0 kHz Frame rate : 31.250 FPS (1536 SPF) Compression mode : Lossy Stream size : 38.7 MiB (5%) Title : Amazon Language : Japanese Service kind : Complete Main Default : Yes Forced : No Text #1 ID : 3 Format : ASS Codec ID : S_TEXT/ASS Codec ID/Info : Advanced Sub Station Alpha Duration : 23 min 59 s Bit rate : 40.8 kb/s Count of elements : 2946 Compression mode : Lossless Stream size : 7.00 MiB (1%) Title : English / English (naiyas/GJM/Cyan) Language : English Default : Yes Forced : No ``` --- ![alt text](https://i.slow.pics/VWyjcMau.png) ![alt text](https://i.slow.pics/2SdZpMRe.png) ![alt text](https://i.slow.pics/doGQ7snL.png)

File list

  • [naiyas] SPY x FAMILY - S01E06 (WEB1080p HEVC10 E-AC-3 Multiple Subtitle).mkv (795.4 MiB)