[MagicStar] Dogengers ~High School~ EP06 [WEBDL] [1080p] [AMZN]

Category:
Date:
2022-05-18 14:11 UTC
Submitter:
Seeders:
5
Information:
Leechers:
1
File size:
1.3 GiB
Completed:
286
Info hash:
27efb178aa92bde58ab62d34ce49579ec321faab
HD 1080p from Prime Video. Use CBR bitrate mode. ![alt text](https://i.ibb.co/PNL9nPw/71b-EWOz1-Zx-L.jpg) ![alt text](https://i.ibb.co/xsVQgDf/Dogengers-High-School-EP06-1080p-AMZN-WEB-DL-DDP2-0-H-264-Magic-Star-mkv.jpg) ``` General Unique ID : 154037471014741661273390660171066878865 (0x73E289AD298D40B99F5C2E0DDE19AB91) Complete name : Dogengers.High.School.EP06.1080p.AMZN.WEB-DL.DDP2.0.H.264-MagicStar.mkv Format : Matroska Format version : Version 4 File size : 1.30 GiB Duration : 19 min 0 s Overall bit rate mode : Constant Overall bit rate : 9 765 kb/s Encoded date : UTC 2022-05-15 16:43:56 Writing application : mkvmerge v50.0.0 ('Awakenings') 64-bit Writing library : libebml v1.4.0 + libmatroska v1.6.2 Cover : Yes Attachments : cover.png Video ID : 1 Format : AVC Format/Info : Advanced Video Codec Format profile : High@L4 Format settings : CABAC / 4 Ref Frames Format settings, CABAC : Yes Format settings, Reference fra : 4 frames Codec ID : V_MPEG4/ISO/AVC Duration : 19 min 0 s Bit rate mode : Constant Bit rate : 9 518 kb/s Nominal bit rate : 10 000 kb/s Width : 1 920 pixels Height : 1 080 pixels Display aspect ratio : 16:9 Frame rate mode : Constant Frame rate : 29.970 (29970/1000) FPS Original frame rate : 29.970 (30000/1001) FPS Color space : YUV Chroma subsampling : 4:2:0 Bit depth : 8 bits Scan type : Progressive Bits/(Pixel*Frame) : 0.153 Stream size : 1.26 GiB (97%) Default : Yes Forced : No Color range : Limited Color primaries : BT.709 Transfer characteristics : BT.709 Matrix coefficients : BT.709 Audio ID : 2 Format : E-AC-3 Format/Info : Enhanced AC-3 Commercial name : Dolby Digital Plus Codec ID : A_EAC3 Duration : 19 min 0 s Bit rate mode : Constant Bit rate : 224 kb/s Channel(s) : 2 channels Channel layout : L R Sampling rate : 48.0 kHz Frame rate : 31.250 FPS (1536 SPF) Compression mode : Lossy Stream size : 30.4 MiB (2%) Language : Japanese Service kind : Complete Main Default : Yes Forced : No ```

File list