[2022-05-15] [UNARCHIVED] [Members only] 【NIJISANJI EN - Yugo Asuma】 【Membership】Track Making for my Birthday Voice pack - Zq6g3UDtqZ4

Category:
Date:
2022-05-15 15:04 UTC
Submitter:
Seeders:
1
Information:
Leechers:
0
File size:
2.2 GiB
Completed:
16
Info hash:
b454b8ffb31674e48c5695fdac0172c9cf40fea9
![Thumbnail](https://pbs.twimg.com/media/FSxPSbHaQAAOH5p?format=jpg&name=medium) Format : MPEG-4 >Format profile : Base Media Codec ID : isom (isom/iso2/avc1/mp41) File size : 2.20 GiB Duration : 2 h 8 min Overall bit rate : 2 447 kb/s Movie name : 【Membership】Track Making for my Birthday Voice pack【NIJISANJI EN | Yugo Asuma】 Performer : Yugo Asuma 【NIJISANJI EN】 Recorded date : 20220515 Writing application : Lavf59.4.102 Cover : Yes Comment : https://www.youtube.com/watch?v=Zq6g3UDtqZ4 Video >ID : 3 Format : AVC Format/Info : Advanced Video Codec Format profile : Main@L4.2 Format settings : CABAC / 1 Ref Frames Format settings, CABAC : Yes Format settings, Reference : 1 frame Format settings, GOP : M=1, N=60 Codec ID : avc1 Codec ID/Info : Advanced Video Coding Duration : 2 h 8 min Bit rate : 2 307 kb/s Width : 1 920 pixels Height : 1 080 pixels Display aspect ratio : 16:9 Frame rate mode : Variable Frame rate : 60.000 FPS Minimum frame rate : 58.824 FPS Maximum frame rate : 62.500 FPS Color space : YUV Chroma subsampling : 4:2:0 Bit depth : 8 bits Scan type : Progressive Bits/(Pixel*Frame) : 0.019 Stream size : 2.07 GiB (94%) Title : ISO Media file produced by Google Inc. Color range : Limited Color primaries : BT.709 Transfer characteristics : BT.709 Matrix coefficients : BT.709 Codec configuration box : avcC Audio >ID : 1 Format : AAC LC Format/Info : Advanced Audio Codec Low Complexity Codec ID : mp4a-40-2 Duration : 2 h 8 min Bit rate mode : Constant Bit rate : 128 kb/s Channel(s) : 2 channels Channel layout : L R Sampling rate : 44.1 kHz Frame rate : 43.066 FPS (1024 SPF) Compression mode : Lossy Stream size : 118 MiB (5%) Title : ISO Media file produced by Google Inc. Default : Yes Alternate group : 1

File list

  • [2022-05-15] [UNARCHIVED] [Members only] 【NIJISANJI EN - Yugo Asuma】 【Membership】Track Making for my Birthday Voice pack - Zq6g3UDtqZ4
    • [2022-05-15] [UNARCHIVED] [Members only] 【NIJISANJI EN - Yugo Asuma】 【Membership】Track Making for my Birthday Voice pack - Zq6g3UDtqZ4.description (2.3 KiB)
    • [2022-05-15] [UNARCHIVED] [Members only] 【NIJISANJI EN - Yugo Asuma】 【Membership】Track Making for my Birthday Voice pack - Zq6g3UDtqZ4.live_chat.json (29.2 MiB)
    • [2022-05-15] [UNARCHIVED] [Members only] 【NIJISANJI EN - Yugo Asuma】 【Membership】Track Making for my Birthday Voice pack - Zq6g3UDtqZ4.mp4 (2.2 GiB)
    • [2022-05-15] [UNARCHIVED] [Members only] 【NIJISANJI EN - Yugo Asuma】 【Membership】Track Making for my Birthday Voice pack - Zq6g3UDtqZ4.webp (80.6 KiB)