[2022-05-14] [UNARCHIVED] 【NIJISANJI EN - Reimu Endou】 【UNARCHIVED EN KARAOKE】 Shuffle on CHALLENGE ! - 4YsAYVDBZd8

Category:
Date:
2022-05-14 18:15 UTC
Submitter:
Seeders:
4
Information:
Leechers:
1
File size:
4.2 GiB
Completed:
17
Info hash:
75fbe4292dd7dff58698b9eadb3c1dbdac5f6e4e
![Thumbnail](https://pbs.twimg.com/media/FSsrYuQXEAE23HK?format=jpg&name=large) Format : MPEG-4 >Format profile : Base Media Codec ID : isom (isom/iso2/avc1/mp41) File size : 4.11 GiB Duration : 2 h 8 min Overall bit rate : 4 586 kb/s Movie name : 【UNARCHIVED EN KARAOKE】Shuffle on CHALLENGE !【NIJISANJI EN | Reimu Endou】 Performer : Reimu Endou【NIJISANJI EN】 Recorded date : 20220514 Writing application : Lavf59.4.102 Cover : Yes Comment : https://www.youtube.com/watch?v=4YsAYVDBZd8 Video >ID : 3 Format : AVC Format/Info : Advanced Video Codec Format profile : Main@L4.2 Format settings : CABAC / 1 Ref Frames Format settings, CABAC : Yes Format settings, Reference : 1 frame Format settings, GOP : M=1, N=60 Codec ID : avc1 Codec ID/Info : Advanced Video Coding Duration : 2 h 8 min Bit rate : 4 443 kb/s Width : 1 920 pixels Height : 1 080 pixels Display aspect ratio : 16:9 Frame rate mode : Variable Frame rate : 60.000 FPS Minimum frame rate : 58.824 FPS Maximum frame rate : 62.500 FPS Color space : YUV Chroma subsampling : 4:2:0 Bit depth : 8 bits Scan type : Progressive Bits/(Pixel*Frame) : 0.036 Stream size : 3.98 GiB (97%) Title : ISO Media file produced by Google Inc. Color range : Limited Color primaries : BT.709 Transfer characteristics : BT.709 Matrix coefficients : BT.709 Codec configuration box : avcC Audio >ID : 1 Format : AAC LC Format/Info : Advanced Audio Codec Low Complexity Codec ID : mp4a-40-2 Duration : 2 h 8 min Bit rate mode : Constant Bit rate : 128 kb/s Channel(s) : 2 channels Channel layout : L R Sampling rate : 44.1 kHz Frame rate : 43.066 FPS (1024 SPF) Compression mode : Lossy Stream size : 117 MiB (3%) Title : ISO Media file produced by Google Inc. Default : Yes Alternate group : 1

File list

  • [2022-05-14] [UNARCHIVED] 【NIJISANJI EN - Reimu Endou】 【UNARCHIVED EN KARAOKE】 Shuffle on CHALLENGE ! - 4YsAYVDBZd8
    • [2022-05-14] [UNARCHIVED] 【NIJISANJI EN - Reimu Endou】 【UNARCHIVED EN KARAOKE】 Shuffle on CHALLENGE ! - 4YsAYVDBZd8.description (2.2 KiB)
    • [2022-05-14] [UNARCHIVED] 【NIJISANJI EN - Reimu Endou】 【UNARCHIVED EN KARAOKE】 Shuffle on CHALLENGE ! - 4YsAYVDBZd8.live_chat.json (53.5 MiB)
    • [2022-05-14] [UNARCHIVED] 【NIJISANJI EN - Reimu Endou】 【UNARCHIVED EN KARAOKE】 Shuffle on CHALLENGE ! - 4YsAYVDBZd8.mp4 (4.1 GiB)
    • [2022-05-14] [UNARCHIVED] 【NIJISANJI EN - Reimu Endou】 【UNARCHIVED EN KARAOKE】 Shuffle on CHALLENGE ! - 4YsAYVDBZd8.webp (147.6 KiB)