Josee.the.Tiger.and.the.Fish.2020.1080p.BluRay.10-Bit.Dual-Audio.FLAC5.1.x265-YURASUKA (Josee to Tora to Sakana-tachi)

Category:
Date:
2022-05-14 05:24 UTC
Submitter:
Seeders:
17
Information:
Leechers:
0
File size:
3.5 GiB
Completed:
86
Info hash:
141d48bf0231a2ce0e6a79bebdf2b76ec355e388
Josee, the Tiger and the Fish / Josee to Tora to Sakana-tachi (2020) [Full mediainfo here](https://pastebin.com/raw/6yAksenk) since it is so long. Video Source: [TTGA BD Remux](https://nyaa.si/view/1426728) (JP) Audio + Subs Source: [naiyas](https://nyaa.si/view/1501388) (MaxEffort, HappySub, USBD) [Encode Comparison](https://slow.pics/c/Leltfhd4) ``` Complete name : Josee.the.Tiger.and.the.Fish.2020.1080p.BluRay.10-Bit.Dual-Audio.FLAC5.1.x265-YURASUKA.mkv Format : Matroska Format version : Version 4 File size : 3.52 GiB Duration : 1 h 38 min Overall bit rate mode : Variable Overall bit rate : 5 140 kb/s Movie name : Josee, the Tiger and the Fish (2020) - YURASUKA Encoded date : UTC 2022-05-14 03:51:59 Writing application : mkvmerge v67.0.0 ('Under Stars') 64-bit Writing library : libebml v1.4.2 + libmatroska v1.6.3 / Lavf59.16.100 Cover : Yes Attachments : 123Marker.ttf / ARRBD_ECL.TTF / avgardneclipse.ttf / BD_Cartoon_Shout.ttf / Black Chancery.ttf / BLOCK-BERTHOLD-REGULAR.TTF / BrownBagLunch.ttf / Caveat-Regular.ttf / CCLEGENDARYLEGERDEMAIN-REG.OTF / DJBYARDSALEMARKER-BOLD.TTF / F5AJJI3A.TTF / F5AJJWEC.TTF / Folks-Bold.ttf / FOT-OEDKTRSTD-E.OTF / FOT-TSUKUAMDMINSTD-E.OTF / GANDHISANS-BOLD.OTF / GANDHISANS-BOLDITALIC.OTF / HannaHandwriting.ttf / Inkfree.ttf / Iwata Gothic Old Pr6 B.otf / K Gothic.ttf / KGINeedAFont.ttf / KGLoveSomebody-Regular.ttf / Lato-Medium.ttf / Margarine-Regular.ttf / MTCORSVA.TTF / quadraat.ttf / Roboto-Bold.ttf / rounded-mplus-1p-regular.ttf / TimKid.ttf / badseed.TTF / GandhiSans-BoldItalic.otf / MaximaTOT-Bol.otf / MERIENDAONE-REGULAR.TTF / GandhiSans-Bold.otf / cover.jpg Video ID : 1 Format : HEVC Format/Info : High Efficiency Video Coding Format profile : Main 10@L4@Main Codec ID : V_MPEGH/ISO/HEVC Duration : 1 h 38 min Bit rate : 2 566 kb/s Width : 1 920 pixels Height : 804 pixels Display aspect ratio : 2.40:1 Frame rate mode : Constant Frame rate : 23.976 (24000/1001) FPS Color space : YUV Chroma subsampling : 4:2:0 Bit depth : 10 bits Bits/(Pixel*Frame) : 0.069 Stream size : 1.76 GiB (50%) Title : YURASUKA 1080p x265 Writing library : x265 3.5:[Linux][GCC 11.2.0][64 bit] 10bit Encoding settings : cpuid=1111039 / frame-threads=4 / numa-pools=24 / wpp / no-pmode / no-pme / no-psnr / no-ssim / log-level=2 / input-csp=1 / input-res=1920x804 / interlace=0 / total-frames=0 / level-idc=0 / high-tier=1 / uhd-bd=0 / ref=6 / no-allow-non-conformance / no-repeat-headers / annexb / no-aud / no-hrd / info / hash=0 / no-temporal-layers / open-gop / min-keyint=1 / keyint=360 / gop-lookahead=0 / bframes=16 / b-adapt=2 / b-pyramid / bframe-bias=0 / rc-lookahead=72 / lookahead-slices=4 / scenecut=40 / hist-scenecut=0 / radl=0 / no-splice / no-intra-refresh / ctu=32 / min-cu-size=8 / rect / amp / max-tu-size=32 / tu-inter-depth=4 / tu-intra-depth=4 / limit-tu=0 / rdoq-level=2 / dynamic-rd=0.00 / no-ssim-rd / signhide / tskip / nr-intra=0 / nr-inter=0 / no-constrained-intra / strong-intra-smoothing / max-merge=3 / limit-refs=3 / limit-modes / me=3 / subme=4 / merange=57 / temporal-mvp / no-frame-dup / no-hme / weightp / weightb / no-analyze-src-pics / deblock=0:0 / no-sao / no-sao-non-deblock / rd=4 / selective-sao=0 / no-early-skip / rskip / no-fast-intra / no-tskip-fast / no-cu-lossless / b-intra / no-splitrd-skip / rdpenalty=0 / psy-rd=2.00 / psy-rdoq=3.00 / no-rd-refine / no-lossless / cbqpoffs=0 / crqpoffs=0 / rc=crf / crf=16.0 / qcomp=0.72 / qpstep=4 / stats-write=0 / stats-read=0 / ipratio=1.40 / pbratio=1.30 / aq-mode=3 / aq-strength=0.90 / cutree / zone-count=0 / no-strict-cbr / qg-size=32 / no-rc-grain / qpmax=69 / qpmin=0 / no-const-vbv / sar=0 / overscan=0 / videoformat=5 / range=0 / colorprim=1 / transfer=1 / colormatrix=1 / chromaloc=0 / display-window=0 / cll=0,0 / min-luma=0 / max-luma=1023 / log2-max-poc-lsb=8 / vui-timing-info / vui-hrd-info / slices=1 / no-opt-qp-pps / no-opt-ref-list-length-pps / no-multi-pass-opt-rps / scenecut-bias=0.05 / hist-threshold=0.03 / no-opt-cu-delta-qp / no-aq-motion / no-hdr10 / no-hdr10-opt / no-dhdr10-opt / no-idr-recovery-sei / analysis-reuse-level=0 / analysis-save-reuse-level=0 / analysis-load-reuse-level=0 / scale-factor=0 / refine-intra=0 / refine-inter=0 / refine-mv=1 / refine-ctu-distortion=0 / no-limit-sao / ctu-info=0 / no-lowpass-dct / refine-analysis-type=0 / copy-pic=1 / max-ausize-factor=1.0 / no-dynamic-refine / no-single-sei / no-hevc-aq / no-svt / no-field / qp-adaptation-range=1.00 / scenecut-aware-qp=0conformance-window-offsets / right=0 / bottom=0 / decoder-max-rate=0 / no-vbv-live-multi-pass Language : Japanese Default : Yes Forced : No Color range : Limited Color primaries : BT.709 Transfer characteristics : BT.709 Matrix coefficients : BT.709 Audio #1 ID : 2 Format : FLAC Format/Info : Free Lossless Audio Codec Codec ID : A_FLAC Duration : 1 h 38 min Bit rate mode : Variable Bit rate : 1 325 kb/s Channel(s) : 6 channels Channel layout : L R C LFE Ls Rs Sampling rate : 48.0 kHz Frame rate : 11.719 FPS (4096 SPF) Bit depth : 16 bits Compression mode : Lossless Delay relative to video : 25 ms Stream size : 930 MiB (26%) Title : English FLAC 5.1 Writing library : libFLAC 1.3.3 (UTC 2019-08-04) Language : English Default : Yes Forced : No Audio #2 ID : 3 Format : FLAC Format/Info : Free Lossless Audio Codec Codec ID : A_FLAC Duration : 1 h 38 min Bit rate mode : Variable Bit rate : 1 170 kb/s Channel(s) : 6 channels Channel layout : L R C LFE Ls Rs Sampling rate : 48.0 kHz Frame rate : 11.719 FPS (4096 SPF) Bit depth : 16 bits Compression mode : Lossless Delay relative to video : 25 ms Stream size : 822 MiB (23%) Title : Japanese FLAC 5.1 Writing library : libFLAC 1.3.3 (UTC 2019-08-04) Language : Japanese Default : No Forced : No Text #1 Format : ASS Title : Signs & Songs (MaxEffort) Text #2 Format : ASS Title : Full Subtitles (MaxEffort) Text #3 Format : ASS Title : Full Subtitles (HappySub) Text #4 Format : PGS Title : Signs & Songs (USBD) Text #5 Format : PGS Title : Full Subtitles (USBD) Menu 00:00:00.000 : en:Avant 00:02:25.520 : en:Part A 00:14:01.674 : en:Part B 00:26:55.322 : en:Part C 00:38:08.328 : en:Part D 00:48:01.462 : en:Part E 01:00:20.116 : en:Part F 01:12:06.989 : en:Part G 01:21:10.699 : en:Part H 01:32:32.338 : en:ED 01:37:18.624 : en:Epilog ``` Dead end for a sucker that’s a sucker like me. 私のような吸盤の行き止まりです。

File list

*appreciation ![](https://i.postimg.cc/kXbpqPD2/300.gif)
Thanks! Much appreciated