[Techmod] Monster Strike 2nd Series

Category:
Date:
2022-05-14 01:56 UTC
Submitter:
Seeders:
0
File size:
6.4 GiB
Completed:
17
Info hash:
5c0cc51e4dad09ffed22b6f9960f012d422f90eb
unfortunately its hardsubbed Format : Matroska Format version : Version 4 File size : 111 MiB Duration : 8 min 2 s Overall bit rate : 1 932 kb/s Encoded date : UTC 2022-04-08 02:28:15 Writing application : mkvmerge v66.0.0 ('Josie') 64-bit Writing library : libebml v1.4.2 + libmatroska v1.6.4 Video ID : 1 Format : AVC Format/Info : Advanced Video Codec Format profile : High@L4 Format settings : CABAC / 3 Ref Frames Format settings, CABAC : Yes Format settings, Reference frames : 3 frames Codec ID : V_MPEG4/ISO/AVC Duration : 8 min 2 s Bit rate : 1 804 kb/s Width : 1 920 pixels Height : 1 080 pixels Display aspect ratio : 16:9 Frame rate mode : Constant Frame rate : 23.976 (24000/1001) FPS Color space : YUV Chroma subsampling : 4:2:0 Bit depth : 8 bits Scan type : Progressive Bits/(Pixel*Frame) : 0.036 Stream size : 104 MiB (93%) Language : Japanese Default : Yes Forced : No Color range : Limited Color primaries : BT.709 Transfer characteristics : BT.709 Matrix coefficients : BT.709 Audio ID : 2 Format : AAC LC Format/Info : Advanced Audio Codec Low Complexity Codec ID : A_AAC-2 Duration : 8 min 2 s Bit rate : 126 kb/s Channel(s) : 2 channels Channel layout : L R Sampling rate : 44.1 kHz Frame rate : 43.066 FPS (1024 SPF) Compression mode : Lossy Stream size : 7.22 MiB (6%) Language : Japanese Default : Yes Forced : No

File list

  • MKV
    • Monster Strike Anime - OVA - The Sprites of Floria [7C39BBB2].mkv (165.8 MiB)
    • Monster Strike the Animation - A Rhapsody Called Lucy -The Very First Song [249B7E3C].mkv (235.0 MiB)
    • [Techmod] Monster Strike - The Fading Cosmos 01 [3C11A6C3].mkv (276.9 MiB)
    • [Techmod] Monster Strike - The Fading Cosmos 02 [2834902B].mkv (109.2 MiB)
    • [Techmod] Monster Strike - The Fading Cosmos 03 [3F10CF82].mkv (66.7 MiB)
    • [Techmod] Monster Strike - The Fading Cosmos 04 [6F743124].mkv (84.3 MiB)
    • [Techmod] Monster Strike - The Fading Cosmos 05 [5FF43C93].mkv (119.2 MiB)
    • [Techmod] Monster Strike - The Fading Cosmos 06 [4CA3A31F].mkv (143.6 MiB)
    • [Techmod] Monster Strike - The Fading Cosmos 07 [533CE83C].mkv (111.1 MiB)
    • [Techmod] Monster Strike - The Fading Cosmos 08 [A75A611A].mkv (95.6 MiB)
    • [Techmod] Monster Strike - The Fading Cosmos 09 [06019FAC].mkv (107.4 MiB)
    • [Techmod] Monster Strike - The Fading Cosmos 10 [1DFFC2FF].mkv (136.0 MiB)
    • [Techmod] Monster Strike - The Fading Cosmos 11 [A5F4B5B1].mkv (177.5 MiB)
    • [Techmod] Monster Strike - The Fading Cosmos 12 [E4992870].mkv (199.3 MiB)
    • [Techmod] Monster Strike - The Fading Cosmos 13 [627292F2].mkv (57.2 MiB)
    • [Techmod] Monster Strike the Anime S02E00 [17CB7F49].mkv (190.1 MiB)
    • [Techmod] Monster Strike the Anime S02E01 [F7FF1F56].mkv (146.4 MiB)
    • [Techmod] Monster Strike the Anime S02E02 [32C263B7].mkv (144.1 MiB)
    • [Techmod] Monster Strike the Anime S02E03 [593EC67B].mkv (137.1 MiB)
    • [Techmod] Monster Strike the Anime S02E04 [742F865B].mkv (153.4 MiB)
    • [Techmod] Monster Strike the Anime S02E05 [3A991759].mkv (170.7 MiB)
    • [Techmod] Monster Strike the Anime S02E06 [4AC3CB78].mkv (151.4 MiB)
    • [Techmod] Monster Strike the Anime S02E07 [261158F0].mkv (168.7 MiB)
    • [Techmod] Monster Strike the Anime S02E08 [8E9C2A34].mkv (172.8 MiB)
    • [Techmod] Monster Strike the Anime S02E09 [496E0697].mkv (121.9 MiB)
    • [Techmod] Monster Strike the Anime S02E10 [3E678113].mkv (193.8 MiB)
    • [Techmod] Monster Strike the Anime S02E11 [4CB6EBF1].mkv (193.7 MiB)
    • [Techmod] Monster Strike the Anime S02E12 [472E7592].mkv (154.1 MiB)
    • [Techmod] Monster Strike the Anime S02E13 [0249BB71].mkv (259.1 MiB)
    • [Techmod] Monster Strike the Anime S02E14 [84EB99B9].mkv (203.5 MiB)
    • [Techmod] Monster Strike the Anime S02E15 [77C691F0].mkv (214.8 MiB)
    • [Techmod] Monster Strike the Anime S02E16 [FD08A54E].mkv (218.5 MiB)
    • [Techmod] Monster Strike the Anime S02E17 [FB8F5E95].mkv (169.7 MiB)
    • [Techmod] Monster Strike the Anime S02E18 [03ACF0CD].mkv (210.5 MiB)
    • [Techmod] Monster Strike the Anime S02E19 [02E4D79B].mkv (264.7 MiB)
    • [Techmod] Monster Strike the Anime S02E20 [4D867E98].mkv (240.2 MiB)
    • [Techmod] Monster Strike the Anime S02E21 [83C83D3D].mkv (225.0 MiB)
    • [Techmod] Monster Strike the Anime S02E22 [AA92200A].mkv (203.0 MiB)
    • [Techmod] Monster Strike the Anime S02E23 [EF459176].mkv (210.0 MiB)