[neoHEVC] The Saint's Magic Power is Omnipotent [Season 1] [BD 1080p x265 HEVC AAC] [Dual Audio] Seijo no Maryoku wa Bannou Desu

Category:
Date:
2022-05-13 09:24 UTC
Submitter:
Seeders:
15
Information:
Leechers:
1
File size:
3.0 GiB
Completed:
1570
Info hash:
f0efeb68b400eeba2886d4be035096ae4c943dda
![](https://i.imgur.com/RBlGp48.png) *Join **[Discord](https://discord.gg/47Q7FdB54e)** for Current Projects and Seed-Request in case of no available seeds.* **The Saint's Magic Power is Omnipotent / Seijo no Maryoku wa Bannou Desu [Season 1]** ![](https://i.imgur.com/ZCtSawZ.png) **[MyAnimeList](https://myanimelist.net/anime/42826/Seijo_no_Maryoku_wa_Bannou_Desu)** ![](https://i.imgur.com/3UxGuWB.png) ![](https://i.imgur.com/4iegWLL.png) **[Trailer](https://www.youtube.com/watch?v=JwsnFH4XRsU)** --- **Synopsis** Since ancient times, the citizens of Salutania have lived within a shroud of miasma, a force that brings forth monsters creating havoc around the world. When the kingdom's Order of Knights becomes incapable of containing the monsters, the Grand Magus summons a holy maiden—the legendary "Saint"—to obliterate the horrid creatures and restore peace. One evening, as Sei Takanashi returns home from a long day at work, a magical force pulls her into a foreign world. Upon her arrival to the kingdom of Salutania, she overhears that the Grand Magus inadvertently summoned two Saints—Sei and a brown-haired girl. Needing only one holy maiden, the prince declares the other girl as the Saint, leaving Sei to her own devices. Sei sets her sight on the Medicinal Flora Research Institute, an establishment known for its studies regarding herbs and potions. While indulging in her latest passion, Sei has a fateful encounter with the commander of the Third Order of Knights. But little does she know, her aptitude as a Saint will continue to exert its influence over her new life. ![](https://i.imgur.com/mau3hHp.png) --- **Language Options** I included two simple scripts that you can apply to these files to do the following (Windows only): 1. Make [Single Audio] Japanese: Throws out *English audio* and *Signs&Songs subtitles* tracks 2. Make [Single Audio] English: Throws out *Japanese audio* and *Dialogue subtitles* tracks To apply these put all the video files into the *Language Options* folder and run the .bat file. *Don't combine them and only use them once together with the base files.* --- **Source** 🗃️ Video (USBDMV): **[PikoPiko]** 🗃️ JPN Audio (USBDMV): **[PikoPiko]** 🗃️ ENG Audio (USBDMV): **[PikoPiko]** 🗃️ Subtitles: **[[Cyan]](https://nyaa.si/view/1428436)** 💬 *Subtitles Info: [Cyan]* *Thank you all for making this possible <3* --- **Media Info** 🆔 [Full Mediainfo incl. Encoder Settings](https://pastebin.com/JCFhjF0H) ``` General Unique ID : 246200512559365216433582882440221819445 (0xB9387E73415D1A630D0E76CCD7600235) Complete name : The Sain'ts Magic Power is Omnipotent - S01E01.mkv Format : Matroska Format version : Version 4 File size : 211 MiB Duration : 23 min 42 s Overall bit rate : 1 244 kb/s Movie name : The Sain'ts Magic Power is Omnipotent - S01E01 Encoded date : UTC 2022-05-13 09:10:09 Writing application : mkvmerge v57.0.0 ('Till The End') 64-bit Writing library : libebml v1.4.2 + libmatroska v1.6.4 / Lavf58.76.100 Attachments : Chiaki Bold Italic.ttf / Chiaki Bold.ttf / eurof35.ttf / Martin-Italic.otf / Martin-Regular.otf / AMANO___.TTF / ClearfaceGothicLTStd-Roman.otf / Roboto-Medium.ttf / Roboto-MediumItalic.ttf Video ID : 1 Format : HEVC Format/Info : High Efficiency Video Coding Format profile : Main 10@L4@High Codec ID : V_MPEGH/ISO/HEVC Duration : 23 min 42 s Bit rate : 954 kb/s Width : 1 920 pixels Height : 1 080 pixels Display aspect ratio : 16:9 Frame rate mode : Constant Frame rate : 23.976 (24000/1001) FPS Color space : YUV Chroma subsampling : 4:2:0 Bit depth : 10 bits Bits/(Pixel*Frame) : 0.019 Stream size : 162 MiB (77%) Writing library : x265 3.5+1-f0c1022b6:[Windows][GCC 9.2.0][64 bit] 10bit Encoding settings : <Check Link Above> Default : Yes Forced : No Color range : Limited Color primaries : BT.709 Transfer characteristics : BT.709 Matrix coefficients : BT.709 Audio #1 ID : 2 Format : AAC LC Format/Info : Advanced Audio Codec Low Complexity Codec ID : A_AAC-2 Duration : 23 min 42 s Bit rate : 123 kb/s Channel(s) : 2 channels Channel layout : L R Sampling rate : 48.0 kHz Frame rate : 46.875 FPS (1024 SPF) Compression mode : Lossy Stream size : 20.8 MiB (10%) Title : English Language : English Default : Yes Forced : No Audio #2 ID : 3 Format : AAC LC Format/Info : Advanced Audio Codec Low Complexity Codec ID : A_AAC-2 Duration : 23 min 42 s Bit rate : 118 kb/s Channel(s) : 2 channels Channel layout : L R Sampling rate : 48.0 kHz Frame rate : 46.875 FPS (1024 SPF) Compression mode : Lossy Stream size : 20.1 MiB (10%) Title : Japanese Language : Japanese Default : No Forced : No Text #1 ID : 4 Format : ASS Codec ID : S_TEXT/ASS Codec ID/Info : Advanced Sub Station Alpha Duration : 22 min 20 s Bit rate : 18.0 kb/s Count of elements : 5291 Compression mode : Lossless Stream size : 2.87 MiB (1%) Title : Signs & Songs Language : English Default : No Forced : Yes Text #2 ID : 5 Format : ASS Codec ID : S_TEXT/ASS Codec ID/Info : Advanced Sub Station Alpha Duration : 22 min 20 s Bit rate : 18.1 kb/s Count of elements : 5615 Compression mode : Lossless Stream size : 2.89 MiB (1%) Title : Dialogue Language : English Default : Yes Forced : No Menu 00:00:00.000 : :Prelude 00:05:26.200 : :Part A 00:12:12.222 : :Eyecatch 00:12:17.027 : :Part B 00:17:47.274 : :Part C 00:21:12.353 : :OP 00:22:53.997 : :Epilogue ```

File list

  • [neoHEVC] The Sain'ts Magic Power is Omnipotent [Season 1] [BD 1080p x265 HEVC AAC] [Dual Audio]
    • Language Options
      • 1. Make [Single Audio] English.bat (254 Bytes)
      • 1. Make [Single Audio] Japanese.bat (254 Bytes)
      • mkvmerge.exe (9.6 MiB)
      • readme.txt (512 Bytes)
    • The Sain'ts Magic Power is Omnipotent - S01E01.mkv (210.9 MiB)
    • The Sain'ts Magic Power is Omnipotent - S01E02.mkv (250.0 MiB)
    • The Sain'ts Magic Power is Omnipotent - S01E03.mkv (221.6 MiB)
    • The Sain'ts Magic Power is Omnipotent - S01E04.mkv (222.6 MiB)
    • The Sain'ts Magic Power is Omnipotent - S01E05.mkv (233.3 MiB)
    • The Sain'ts Magic Power is Omnipotent - S01E06.mkv (217.8 MiB)
    • The Sain'ts Magic Power is Omnipotent - S01E07.mkv (262.9 MiB)
    • The Sain'ts Magic Power is Omnipotent - S01E08.mkv (275.1 MiB)
    • The Sain'ts Magic Power is Omnipotent - S01E09.mkv (217.0 MiB)
    • The Sain'ts Magic Power is Omnipotent - S01E10.mkv (407.9 MiB)
    • The Sain'ts Magic Power is Omnipotent - S01E11.mkv (259.9 MiB)
    • The Sain'ts Magic Power is Omnipotent - S01E12.mkv (324.4 MiB)

neoborn (uploader)

User
![](https://i.imgur.com/In7tWut.png) You might need to fix the typo if your media server can't pick this up and match it correctly
Great release! Thanks neo
![kek](https://i.imgur.com/OWqhrAy.png "KarenOil")

neoborn (uploader)

User
Thanks! I really appreciate all the info you give in your descriptions. The MAL links are also helpful.
Could you reseed this ? Thank you