Dragon Ball Z - Selecta Vision BOX 1 [1-20][ITA-ENG-JAP][h265][Marc1]

Category:
Date:
2022-05-12 09:25 UTC
Submitter:
Seeders:
2
Information:
No information.
Leechers:
0
File size:
27.9 GiB
Completed:
18
Info hash:
9b133ce3b52dca9aff82c766a72bbb772df01970
Hi guys! That's my very first torrent uploaded, please be kind, all your advices are truly appreciated. Sample: ![h265](https://i.ibb.co/NyCxhfS/Dragon-Ball-Z-001-Il-misterioso-combattente-Marc1-mkv-snapshot-04-04-666.jpg "DBZ 001 h265") Specs: Format : Matroska Format version : Version 4 File size : 1.33 GiB Duration : 24 min 39 s Overall bit rate mode : Variable Overall bit rate : 7 712 kb/s Movie name : Dragon Ball Z - 001 - Il misterioso combattente [Marc1] Encoded date : UTC 2022-03-31 16:11:04 Writing application : mkvmerge v66.0.0 ('Josie') 64-bit Writing library : libebml v1.4.2 + libmatroska v1.6.4 / Lavf58.29.100 Video ID : 1 Format : HEVC Format/Info : High Efficiency Video Coding Format profile : Main 10@L4@Main Codec ID : V_MPEGH/ISO/HEVC Duration : 24 min 39 s Bit rate : 6 533 kb/s Width : 1 450 pixels Height : 1 078 pixels Display aspect ratio : 4:3 Frame rate mode : Constant Frame rate : 23.976 (24000/1001) FPS Color space : YUV Chroma subsampling : 4:2:0 Bit depth : 10 bits Bits/(Pixel*Frame) : 0.174 Stream size : 1.12 GiB (85%) Writing library : x265 3.2.1+1-b5c86a64bbbe:[Windows][GCC 9.2.0][64 bit] 10bit Encoding settings : cpuid=1111039 / frame-threads=4 / numa-pools=16 / wpp / no-pmode / no-pme / no-psnr / no-ssim / log-level=2 / input-csp=1 / input-res=1450x1078 / interlace=0 / total-frames=0 / level-idc=0 / high-tier=1 / uhd-bd=0 / ref=3 / no-allow-non-conformance / no-repeat-headers / annexb / no-aud / no-hrd / info / hash=0 / no-temporal-layers / open-gop / min-keyint=24 / keyint=240 / gop-lookahead=0 / bframes=4 / b-adapt=0 / b-pyramid / bframe-bias=0 / rc-lookahead=15 / lookahead-slices=6 / scenecut=40 / radl=0 / no-splice / no-intra-refresh / ctu=64 / min-cu-size=8 / no-rect / no-amp / max-tu-size=32 / tu-inter-depth=1 / tu-intra-depth=1 / limit-tu=0 / rdoq-level=0 / dynamic-rd=0.00 / no-ssim-rd / signhide / no-tskip / nr-intra=0 / nr-inter=0 / no-constrained-intra / strong-intra-smoothing / max-merge=2 / limit-refs=3 / no-limit-modes / me=1 / subme=2 / merange=57 / temporal-mvp / no-hme / weightp / no-weightb / no-analyze-src-pics / deblock=0:0 / sao / no-sao-non-deblock / rd=2 / selective-sao=4 / no-early-skip / rskip / fast-intra / no-tskip-fast / no-cu-lossless / no-b-intra / no-splitrd-skip / rdpenalty=0 / psy-rd=2.00 / psy-rdoq=0.00 / no-rd-refine / no-lossless / cbqpoffs=0 / crqpoffs=0 / rc=crf / crf=15.0 / qcomp=0.60 / qpstep=4 / stats-write=0 / stats-read=0 / ipratio=1.40 / pbratio=1.30 / aq-mode=2 / aq-strength=1.00 / cutree / zone-count=0 / no-strict-cbr / qg-size=32 / no-rc-grain / qpmax=69 / qpmin=0 / no-const-vbv / sar=1 / overscan=0 / videoformat=5 / range=0 / colorprim=1 / transfer=1 / colormatrix=1 / chromaloc=0 / display-window=0 / cll=0,0 / min-luma=0 / max-luma=1023 / log2-max-poc-lsb=8 / vui-timing-info / vui-hrd-info / slices=1 / no-opt-qp-pps / no-opt-ref-list-length-pps / no-multi-pass-opt-rps / scenecut-bias=0.05 / no-opt-cu-delta-qp / no-aq-motion / no-hdr / no-hdr-opt / no-dhdr10-opt / no-idr-recovery-sei / analysis-reuse-level=5 / scale-factor=0 / refine-intra=0 / refine-inter=0 / refine-mv=1 / refine-ctu-distortion=0 / no-limit-sao / ctu-info=0 / no-lowpass-dct / refine-analysis-type=0 / copy-pic=1 / max-ausize-factor=1.0 / no-dynamic-refine / no-single-sei / no-hevc-aq / no-svt / no-field / qp-adaptation-range=1.00 Default : Yes Forced : No Color range : Limited Color primaries : BT.709 Transfer characteristics : BT.709 Matrix coefficients : BT.709 Audio #1 ID : 2 Format : AC-3 Format/Info : Audio Coding 3 Commercial name : Dolby Digital Codec ID : A_AC3 Duration : 24 min 8 s Bit rate mode : Constant Bit rate : 192 kb/s Channel(s) : 2 channels Channel layout : L R Sampling rate : 48.0 kHz Frame rate : 31.250 FPS (1536 SPF) Compression mode : Lossy Delay relative to video : 3 ms Stream size : 33.1 MiB (2%) Title : Italiano Language : Italian Service kind : Complete Main Default : Yes Forced : Yes Audio #2 ID : 3 Format : DTS XLL Format/Info : Digital Theater Systems Commercial name : DTS-HD Master Audio Codec ID : A_DTS Duration : 24 min 39 s Bit rate mode : Variable Bit rate : 987 kb/s Channel(s) : 2 channels Channel layout : L R Sampling rate : 48.0 kHz Frame rate : 93.750 FPS (512 SPF) Bit depth : 16 bits Compression mode : Lossless Stream size : 174 MiB (13%) Language : Japanese Default : Yes Forced : No Text #1 ID : 4 Format : ASS Codec ID : S_TEXT/ASS Codec ID/Info : Advanced Sub Station Alpha Duration : 4 s 440 ms Bit rate : 84 b/s Count of elements : 1 Compression mode : Lossless Stream size : 47.0 Bytes (0%) Title : Cartelli Language : Italian Default : Yes Forced : Yes Text #2 ID : 5 Format : ASS Codec ID : S_TEXT/ASS Codec ID/Info : Advanced Sub Station Alpha Duration : 20 min 8 s Bit rate : 56 b/s Count of elements : 154 Compression mode : Lossless Stream size : 8.32 KiB (0%) Title : Italiano Language : Italian Default : No Forced : No Text #3 ID : 6 Format : ASS Codec ID : S_TEXT/ASS Codec ID/Info : Advanced Sub Station Alpha Duration : 23 min 49 s Bit rate : 46 b/s Count of elements : 141 Compression mode : Lossless Stream size : 8.17 KiB (0%) Title : Inglese Language : English Default : No Forced : No Menu 00:00:00.000 : en:Opening 00:01:49.459 : en:Prologue 00:03:06.259 : en:Part 1 00:12:23.739 : en:Part 2 00:22:33.339 : en:Ending

File list

  • Dragon Ball Z - Selecta Vision BOX 1 [1-20][h265][Marc1]
    • Dragon Ball Z - 001 - Il misterioso combattente [Marc1].mkv (1.3 GiB)
    • Dragon Ball Z - 002 - Il fratello di Goku [Marc1].mkv (1.5 GiB)
    • Dragon Ball Z - 003 - L'invincibile coppia [Marc1].mkv (1.4 GiB)
    • Dragon Ball Z - 004 - Junior gioca la sua carta [Marc1].mkv (1.6 GiB)
    • Dragon Ball Z - 005 - La scomparsa di Goku [Marc1].mkv (1.5 GiB)
    • Dragon Ball Z - 006 - Padre e figlio si allenano [Marc1].mkv (1.3 GiB)
    • Dragon Ball Z - 007 - L'addestramento di Gohan [Marc1].mkv (1.4 GiB)
    • Dragon Ball Z - 008 - La metamorfosi di Gohan [Marc1].mkv (1.4 GiB)
    • Dragon Ball Z - 009 - Il robot [Marc1].mkv (1.3 GiB)
    • Dragon Ball Z - 010 - Il primo combattimento di Gohan [Marc1].mkv (1.5 GiB)
    • Dragon Ball Z - 011 - Il risveglio dei saiyan [Marc1].mkv (1.4 GiB)
    • Dragon Ball Z - 012 - Tensing si riunisce al gruppo [Marc1].mkv (1.5 GiB)
    • Dragon Ball Z - 013 - Il frutto magico di Re Yammer [Marc1].mkv (1.4 GiB)
    • Dragon Ball Z - 014 - La principessa [Marc1].mkv (1.4 GiB)
    • Dragon Ball Z - 015 - Gohan vuole tornare a casa [Marc1].mkv (1.5 GiB)
    • Dragon Ball Z - 016 - Gohan torna a casa [Marc1].mkv (1.5 GiB)
    • Dragon Ball Z - 017 - L'incontro con i due saiyan [Marc1].mkv (1.2 GiB)
    • Dragon Ball Z - 018 - La fine del serpentone [Marc1].mkv (1.3 GiB)
    • Dragon Ball Z - 019 - All'inseguimento di Bubbles [Marc1].mkv (1.3 GiB)
    • Dragon Ball Z - 020 - La storia dei saiyan [Marc1].mkv (1.3 GiB)
Was the IT opening shortened for the JP OP? I remember it's like almost 3mins?

marc1 (uploader)

User
Yes, so i decided to keep both original OP/EN.
no offense but sv generally looks like crap without enigmos fixes
@ Ethan That's true.

marc1 (uploader)

User
I really would like to repair, but i honestly don't know how to set enigmo, could you link me something? thanks
@marc1 He blurred and added fake grain with davinci resolve's dehancer plugin and also made a basic color correction Also, is this a reencode?
@marc1 They are being sarcastic ( ethan2awesome and Impakt) . Besides, enigmo is just a British fan of Dragon Ball Franchise and he used to be a troll most of the times .
im not being sarcastic tho
If anyone can find me a source of Z box 2, I would greatly appreciate it. Currently retiming SV to dragon box
@The-good_Man1994 it's not sarcasm, what enigmo did was indeed a troll, but he did make SV look better. Not comparable to DBox imo, but I can understand the appeal
DBox now looks outdated although it's not that bad with a CC. SV DBZ BDs are on U2. Just give it time, besides there are 14 volumes so it'll take a while for SV to release it all.
I wouldn't call them outdated since they're still the best. Although a HD or UHD remaster would be good
The green tint makes it look very awkward now. Now, the best, it's the SoM DBox Merge until something pops up.
Love the effort by SoM but at the end of the day it's SD with other DBox problems can't wait till Toei does an official HD release

marc1 (uploader)

User
@DonCanjas Yep, i reencode with handbrake adding a couple of filter starting from raw files (grainy and sharpness)
@ Gnosis Kai was a true HD Remaster of Dragon Ball Z, but it didn't look very good (except the 35mm episodes). Don't expect anything from them so you won't be disappointed.
@Impakt True but Kai was done years ago and I would think there is a huge demand for the original series to be released completely in HD only a matter of time I just hope it's not 16:9 with green tint lol.
@Impakt expect a CC soon™️
is it broadcast audio?