[MagicStar] Mirai e no 10 Count EP04 [WEBDL] [1080p] [AMZN] [JPN_SUB]

Category:
Date:
2022-05-12 02:59 UTC
Submitter:
Seeders:
14
Information:
Leechers:
2
File size:
3.3 GiB
Completed:
480
Info hash:
148c29a1a12e4c2ff1c22cc83fb16e39f1e44b53
HD 1080p from Prime Video. Use CBR bitrate mode. Japanese subtitles added. ![alt text](https://i.ibb.co/D1r2y4w/de36173a-7ce3-48c1-a583-7158b54a80f0.jpg) ![alt text](https://i.ibb.co/ccGHfSR/Mirai-e-no-10-Count-EP04-1080p-AMZN-WEB-DL-DDP2-0-H-264-Magic-Star-mkv.jpg) ``` General Unique ID : 38523486426583346849587098470371934313 (0x1CFB5A85FEF375C5581CED36FC95C069) Complete name : Mirai.e.no.10.Count.EP04.1080p.AMZN.WEB-DL.DDP2.0.H.264-MagicStar.mkv Format : Matroska Format version : Version 4 File size : 3.32 GiB Duration : 50 min 1 s Overall bit rate mode : Constant Overall bit rate : 9 515 kb/s Encoded date : UTC 2022-05-11 23:59:06 Writing application : mkvmerge v50.0.0 ('Awakenings') 64-bit Writing library : libebml v1.4.0 + libmatroska v1.6.2 Cover : Yes Attachments : cover.png Video ID : 1 Format : AVC Format/Info : Advanced Video Codec Format profile : High@L4 Format settings : CABAC / 4 Ref Frames Format settings, CABAC : Yes Format settings, Reference fra : 4 frames Codec ID : V_MPEG4/ISO/AVC Duration : 50 min 1 s Bit rate mode : Constant Bit rate : 9 281 kb/s Nominal bit rate : 10 000 kb/s Width : 1 920 pixels Height : 1 080 pixels Display aspect ratio : 16:9 Frame rate mode : Constant Frame rate : 29.970 (29970/1000) FPS Original frame rate : 29.970 (30000/1001) FPS Color space : YUV Chroma subsampling : 4:2:0 Bit depth : 8 bits Scan type : Progressive Bits/(Pixel*Frame) : 0.149 Stream size : 3.24 GiB (98%) Default : Yes Forced : No Color range : Limited Color primaries : BT.709 Transfer characteristics : BT.709 Matrix coefficients : BT.709 Audio ID : 2 Format : E-AC-3 Format/Info : Enhanced AC-3 Commercial name : Dolby Digital Plus Codec ID : A_EAC3 Duration : 50 min 1 s Bit rate mode : Constant Bit rate : 224 kb/s Channel(s) : 2 channels Channel layout : L R Sampling rate : 48.0 kHz Frame rate : 31.250 FPS (1536 SPF) Compression mode : Lossy Stream size : 80.2 MiB (2%) Language : Japanese Service kind : Complete Main Default : Yes Forced : No ```

File list