[MagicStar] Waru ~Hataraku no ga Kakko Warui Nante Dare ga Itta?~ EP05 [WEBDL] [1080p] [HULU] [JPN_SUB]

Category:
Date:
2022-05-12 02:58 UTC
Submitter:
Seeders:
16
Information:
Leechers:
1
File size:
1.5 GiB
Completed:
775
Info hash:
659088a033752ec656209f2b74fa4e0319d2c0f4
HD 1080p from HULU JAPAN. ![alt text](https://i.ibb.co/bbCgF8n/b6bac335-bcdd-4d12-8068-520c87b44e26b.jpg) ![alt text](https://i.ibb.co/5rJQJ6T/Waru-Hataraku-no-ga-Kakko-Warui-Nante-Dare-ga-Itta-EP05-1080p-HULU-WEB-DL-AAC2-0-H-264-Magic-Star-mk.jpg) ``` General Unique ID : 287397146740836585801236776275382242331 (0xD836AD555FE59698539C0D27F8EA0C1B) Complete name : Waru.Hataraku.no.ga.Kakko.Warui.Nante.Dare.ga.Itta.EP05.1080p.HULU.WEB-DL.AAC2.0.H.264-MagicStar.mkv Format : Matroska Format version : Version 4 File size : 1.46 GiB Duration : 51 min 33 s Overall bit rate : 4 067 kb/s Encoded date : UTC 2022-05-11 23:58:11 Writing application : mkvmerge v50.0.0 ('Awakenings') 64-bit Writing library : libebml v1.4.0 + libmatroska v1.6.2 Cover : Yes Attachments : cover.png Video ID : 1 Format : AVC Format/Info : Advanced Video Codec Format profile : High@L4 Format settings : CABAC / 4 Ref Frames Format settings, CABAC : Yes Format settings, Reference fra : 4 frames Codec ID : V_MPEG4/ISO/AVC Duration : 51 min 33 s Bit rate : 3 939 kb/s Width : 1 920 pixels Height : 1 080 pixels Display aspect ratio : 16:9 Frame rate mode : Constant Frame rate : 29.970 (29970/1000) FPS Original frame rate : 29.970 (30000/1001) FPS Color space : YUV Chroma subsampling : 4:2:0 Bit depth : 8 bits Scan type : Progressive Bits/(Pixel*Frame) : 0.063 Stream size : 1.42 GiB (97%) Default : Yes Forced : No Color range : Limited Color primaries : BT.709 Transfer characteristics : BT.709 Matrix coefficients : BT.709 Audio ID : 2 Format : AAC LC Format/Info : Advanced Audio Codec Low Complexity Codec ID : A_AAC-2 Duration : 51 min 33 s Bit rate : 125 kb/s Channel(s) : 2 channels Channel layout : L R Sampling rate : 48.0 kHz Frame rate : 46.875 FPS (1024 SPF) Compression mode : Lossy Stream size : 46.2 MiB (3%) Language : Japanese Default : Yes Forced : No ```

File list