[naiyas] My Hero Academia - Boku no Hero Academia - (World Heroes Mission) 2021 - Movie 3 (BD 1080p HEVC10 FLAC).mkv

Category:
Date:
2022-05-03 05:42 UTC
Submitter:
Seeders:
0
Information:
Leechers:
0
File size:
9.1 GiB
Completed:
255
Info hash:
e5cde454a6783e7348dcf115c1448eea3888e5a9
![alt tex](https://cdn.myanimelist.net/images/anime/1257/113753l.jpg) ##### Encoder **naiyas/DarthMorlock** Source:[**TTGA**](https://nyaa.si/view/1520273) / [**MAL**](https://myanimelist.net/anime/44200/Boku_no_Hero_Academia_the_Movie_3__World_Heroes_Mission) ``` General Unique ID : 310715448469563738658232455885251588516 (0xE9C19E5F223670509D3A420185A6B1A4) Complete name : F:\Anime Movies\[naiyas] Boku no Hero Academia - World Heroes Mission (BD 1080p HEVC10 FLAC).mkv Format : Matroska Format version : Version 4 File size : 9.12 GiB Duration : 1 h 44 min Overall bit rate mode : Variable Overall bit rate : 12.5 Mb/s Movie name : [naiyas] Boku no Hero Academia - World Heroes Mission (BD 1080p HEVC10 FLAC) Encoded date : UTC 2022-05-03 05:01:21 Writing application : mkvmerge v57.0.0 ('Till The End') 64-bit Writing library : libebml v1.4.2 + libmatroska v1.6.4 Cover : Yes Attachments : cover.jpg / Impress BT.ttf / JockeyOne-Regular.ttf / KGNexttoMe-Solid.ttf / Overlock-BoldItalic.ttf / SFCOMICSCRIPT-BOLD.TTF / HelveticaCdBlk.ttf / SFCOMICSCRIPT-BOLD.ttf Video ID : 1 Format : HEVC Format/Info : High Efficiency Video Coding Format profile : Main 10@L5@Main Codec ID : V_MPEGH/ISO/HEVC Duration : 1 h 44 min Bit rate : 10.2 Mb/s Width : 1 920 pixels Height : 1 080 pixels Display aspect ratio : 16:9 Frame rate mode : Variable Frame rate : 23.976 (24000/1001) FPS Color space : YUV Chroma subsampling : 4:2:0 Bit depth : 10 bits Bits/(Pixel*Frame) : 0.206 Stream size : 7.47 GiB (82%) Title : [naiyas] HEVC10 Writing library : x265 3.5+37+12-4e46995bc:[Windows][MSVC 1931][64 bit] 10bit Encoding settings : cpuid=1111039 / frame-threads=4 / numa-pools=24 / wpp / no-pmode / no-pme / no-psnr / no-ssim / log-level=2 / input-csp=1 / input-res=1920x1080 / interlace=0 / total-frames=150336 / level-idc=0 / high-tier=1 / uhd-bd=0 / ref=6 / no-allow-non-conformance / no-repeat-headers / annexb / no-aud / no-eob / no-eos / no-hrd / info / hash=0 / no-temporal-layers / no-open-gop / min-keyint=23 / keyint=250 / gop-lookahead=0 / bframes=12 / b-adapt=2 / b-pyramid / bframe-bias=0 / rc-lookahead=90 / lookahead-slices=4 / scenecut=40 / no-hist-scenecut / radl=0 / no-splice / no-intra-refresh / ctu=64 / min-cu-size=8 / rect / no-amp / max-tu-size=32 / tu-inter-depth=1 / tu-intra-depth=1 / limit-tu=0 / rdoq-level=2 / dynamic-rd=0.00 / no-ssim-rd / signhide / no-tskip / nr-intra=0 / nr-inter=0 / no-constrained-intra / no-strong-intra-smoothing / max-merge=5 / limit-refs=3 / no-limit-modes / me=2 / subme=7 / merange=57 / temporal-mvp / no-frame-dup / no-hme / weightp / no-weightb / no-analyze-src-pics / deblock=1:-1 / no-sao / no-sao-non-deblock / rd=6 / selective-sao=0 / no-early-skip / no-rskip / no-fast-intra / no-tskip-fast / no-cu-lossless / no-b-intra / no-splitrd-skip / rdpenalty=0 / psy-rd=2.00 / psy-rdoq=1.00 / no-rd-refine / no-lossless / cbqpoffs=0 / crqpoffs=0 / rc=crf / crf=15.0 / qcomp=0.60 / qpstep=4 / stats-write=0 / stats-read=0 / ipratio=1.40 / pbratio=1.30 / aq-mode=3 / aq-strength=1.00 / aq-bias-strength=1.00 / no-cutree / zone-count=0 / no-strict-cbr / qg-size=32 / no-rc-grain / qpmax=69 / qpmin=0 / no-const-vbv / sar=0 / overscan=0 / videoformat=5 / range=0 / colorprim=1 / transfer=1 / colormatrix=1 / chromaloc=0 / display-window=0 / cll=0,0 / min-luma=0 / max-luma=1023 / log2-max-poc-lsb=8 / vui-timing-info / vui-hrd-info / slices=1 / no-opt-qp-pps / no-opt-ref-list-length-pps / no-multi-pass-opt-rps / scenecut-bias=0.05 / hist-threshold=0.03 / no-opt-cu-delta-qp / no-aq-motion / no-hdr10 / no-hdr10-opt / no-dhdr10-opt / no-idr-recovery-sei / analysis-reuse-level=0 / analysis-save-reuse-level=0 / analysis-load-reuse-level=0 / scale-factor=0 / refine-intra=0 / refine-inter=0 / refine-mv=2 / refine-ctu-distortion=0 / no-limit-sao / ctu-info=0 / no-lowpass-dct / refine-analysis-type=0 / copy-pic=1 / max-ausize-factor=1.0 / no-dynamic-refine / no-single-sei / no-hevc-aq / no-svt / no-field / qp-adaptation-range=1.00 / scenecut-aware-qp=0conformance-window-offsets / right=0 / bottom=0 / decoder-max-rate=0 / no-vbv-live-multi-pass Language : Japanese Default : Yes Forced : No Color range : Limited Color primaries : BT.709 Transfer characteristics : BT.709 Matrix coefficients : BT.709 Audio #1 ID : 2 Format : FLAC Format/Info : Free Lossless Audio Codec Codec ID : A_FLAC Duration : 1 h 44 min Bit rate mode : Variable Bit rate : 1 531 kb/s Channel(s) : 6 channels Channel layout : L R C LFE Ls Rs Sampling rate : 48.0 kHz Frame rate : 11.719 FPS (4096 SPF) Bit depth : 16 bits Compression mode : Lossless Stream size : 1.12 GiB (12%) Title : FLAC16 5.1 chn Writing library : libFLAC 1.3.3 (UTC 2019-08-04) Language : Japanese Default : Yes Forced : No Audio #2 ID : 3 Format : FLAC Format/Info : Free Lossless Audio Codec Codec ID : A_FLAC Duration : 1 h 44 min Bit rate mode : Variable Bit rate : 697 kb/s Channel(s) : 2 channels Channel layout : L R Sampling rate : 48.0 kHz Frame rate : 11.719 FPS (4096 SPF) Bit depth : 16 bits Detected bit depth : 24 bits Compression mode : Lossless Stream size : 521 MiB (6%) Title : FLAC16 2.0 chn Writing library : libFLAC 1.3.3 (UTC 2019-08-04) Language : Japanese Default : No Forced : No Text #1 ID : 4 Format : ASS Codec ID : S_TEXT/ASS Codec ID/Info : Advanced Sub Station Alpha Duration : 1 h 43 min Bit rate : 191 b/s Count of elements : 1781 Compression mode : Lossless Stream size : 145 KiB (0%) Title : Animorphs (ASS) Language : English Default : Yes Forced : No Text #2 ID : 5 ID in the original source medium : 4608 (0x1200) Format : PGS Muxing mode : zlib Codec ID : S_HDMV/PGS Codec ID/Info : Picture based subtitle format used on BDs/HD-DVDs Duration : 1 h 43 min Bit rate : 76.1 kb/s Count of elements : 4806 Stream size : 56.3 MiB (1%) Title : Japanese (PGS) Language : Japanese Default : No Forced : No Original source medium : Blu-ray Menu 00:00:00.000 : Chapter 01 00:09:30.027 : Chapter 02 00:19:33.672 : Chapter 03 00:33:50.528 : Chapter 04 00:49:21.833 : Chapter 05 01:03:17.126 : Chapter 06 01:17:08.582 : Chapter 07 01:30:42.562 : Chapter 08 01:38:39.413 : Chapter 09 ``` --- ![alt text](https://i.slow.pics/FzDJmF6C.png) ![alt text](https://i.slow.pics/9WDHwONP.png) ![alt text](https://i.slow.pics/87Gjf02p.png)

File list

  • [naiyas] Boku no Hero Academia - World Heroes Mission (BD 1080p HEVC10 FLAC).mkv (9.1 GiB)
already fix sub?

naiyas (uploader)

User
i ddn't notice, what's the problem of **Animorphs** sub? cuz i haven't wtach this movie.
I'm seeing all those 10-bit videos but is there a difference between 8-bit and 10-bit anime? Does it decrease or increase the quality? Or just a preference?

naiyas (uploader)

User
@sniper23 here some facts [**what are the differences between 8 bit to 10 bit video**](https://www.youtube.com/watch?v=WNy24_XD38o)
@naiyas I watched the video. It talks about the source itself being 10-bit. Are the videos here 10-bit though, the sources? Or all anime coming from 8bit? Up-scaling it to 10-bit have benefits?
> Does 10-bit have benefits? @sniper23 [simply put, yes](https://news.ycombinator.com/item?id=9330975)