[2022-04-30] [UNARCHIVED] 【NIJISANJI EN - Reimu Endou】 【FIRST EN KARAOKE】I'll be a ghost princess tonight ! ♡ - j6cpH1PktMc

Category:
Date:
2022-05-01 03:35 UTC
Submitter:
Seeders:
1
Information:
Leechers:
1
File size:
3.9 GiB
Completed:
32
Info hash:
eb66964abce74b3fa03de53c425ca7cde680464c
![Thumbnail](https://pbs.twimg.com/media/FRmg6yDXoAE9lA0?format=jpg&name=large) Format : MPEG-4 >Format profile : Base Media Codec ID : isom (isom/iso2/avc1/mp41) File size : 3.86 GiB Duration : 2 h 0 min Overall bit rate : 4 581 kb/s Movie name : 【FIRST EN KARAOKE】I'll be a ghost princess tonight ! ♡【NIJISANJI EN | Reimu Endou】 Performer : Reimu Endou【NIJISANJI EN】 Recorded date : 20220430 Writing application : Lavf59.4.102 Cover : Yes Comment : https://www.youtube.com/watch?v=j6cpH1PktMc Video >ID : 3 Format : AVC Format/Info : Advanced Video Codec Format profile : Main@L4.2 Format settings : CABAC / 1 Ref Frames Format settings, CABAC : Yes Format settings, Reference : 1 frame Format settings, GOP : M=1, N=60 Codec ID : avc1 Codec ID/Info : Advanced Video Coding Duration : 2 h 0 min Bit rate : 4 441 kb/s Width : 1 920 pixels Height : 1 080 pixels Display aspect ratio : 16:9 Frame rate mode : Variable Frame rate : 60.000 FPS Minimum frame rate : 58.824 FPS Maximum frame rate : 62.500 FPS Color space : YUV Chroma subsampling : 4:2:0 Bit depth : 8 bits Scan type : Progressive Bits/(Pixel*Frame) : 0.036 Stream size : 3.74 GiB (97%) Title : ISO Media file produced by Google Inc. Color range : Limited Color primaries : BT.709 Transfer characteristics : BT.709 Matrix coefficients : BT.709 Codec configuration box : avcC Audio >ID : 1 Format : AAC LC Format/Info : Advanced Audio Codec Low Complexity Codec ID : mp4a-40-2 Duration : 2 h 0 min Bit rate mode : Constant Bit rate : 128 kb/s Channel(s) : 2 channels Channel layout : L R Sampling rate : 44.1 kHz Frame rate : 43.066 FPS (1024 SPF) Compression mode : Lossy Stream size : 110 MiB (3%) Title : ISO Media file produced by Google Inc. Default : Yes Alternate group : 1

File list

  • [2022-04-30] [UNARCHIVED] 【NIJISANJI EN - Reimu Endou】 【FIRST EN KARAOKE】I'll be a ghost princess tonight ! ♡ - j6cpH1PktMc
    • [2022-04-30] [UNARCHIVED] 【NIJISANJI EN - Reimu Endou】 【FIRST EN KARAOKE】I'll be a ghost princess tonight ! ♡ - j6cpH1PktMc.description (2.2 KiB)
    • [2022-04-30] [UNARCHIVED] 【NIJISANJI EN - Reimu Endou】 【FIRST EN KARAOKE】I'll be a ghost princess tonight ! ♡ - j6cpH1PktMc.jpg (42.7 KiB)
    • [2022-04-30] [UNARCHIVED] 【NIJISANJI EN - Reimu Endou】 【FIRST EN KARAOKE】I'll be a ghost princess tonight ! ♡ - j6cpH1PktMc.live_chat.json (56.2 MiB)
    • [2022-04-30] [UNARCHIVED] 【NIJISANJI EN - Reimu Endou】 【FIRST EN KARAOKE】I'll be a ghost princess tonight ! ♡ - j6cpH1PktMc.mp4 (3.9 GiB)