[MiraiAnime] Log Horizon: Destruction of the Round Table [Season 3] [BD 1080p x265 HEVC OPUS | AAC] [V2] [Dual-Audio] Entaku Houkai

Category:
Date:
2022-04-27 19:00 UTC
Submitter:
Seeders:
12
Information:
Leechers:
1
File size:
4.5 GiB
Completed:
995
Info hash:
48f56e416bb019871a106ff9e8d1e0a3a0ad9886
|![](https://i.imgur.com/l3JuFV4.jpg)| | :-----: | | [**Log Horizon: Entaku Houkai / Destruction of the Round Table - MyAnimeList.net**](https://myanimelist.net/anime/41109/Log_Horizon__Entaku_Houkai) | ___ #### **Information:** V2 Changelog: Upon receiving a request on discord, I decided to style all the signs which GSK skipped (and activated them). ###### Most of them are merely nametags and nothing special. The video source was also changed from Beatrice's to the BDMV, which was uploaded a few days ago. ___ Consider using [**mpv**](https://mpv.io/) for playback. ##### For requests or questions, join my (small) discord here: **https://discord.gg/8n7H3ArdCW** ___ **Summary:** * synched audio and subtitles to video * stylied and timed signs which GSK skipped * copied english audio track from EMBER's release * encoded the video tracks to HEVC (libx265, yuv420p10le, crf 19) * encoded the japanese audio track from PCM to OPUS (libopus) * naming scheme matches [TheTVDB.com](https://thetvdb.com/series/log-horizon) (for plex/sonarr/radarr/emby/jellyfin/kodi compatibility) |Track-Type | Title | Attributes | | :-------------: |:-------------:| :-----:| |video|Japanese|x265 HEVC 10bit 23.976FPS 1920x1080| |audio|Japanese|48.0kHz stereo OPUS| |audio|English|48.0kHz stereo AAC (**default**)| |subtitles|Dialogue|ass| |subtitles|Signs&Songs|ass (**default**)| |chapters| ___ #### **Source:** [**BDMV**](https://nyaa.si/view/1519121 "Anon's release") - video, audio (jpn) [**GSK_kun**](https://nyaa.si/view/1451018 "GSK_kun's release") - subtitles [**EMBER**](https://nyaa.si/view/1384977 "EMBER's release") - audio (eng) ___ #### **Screenshots:** |Screenshot 1|Screenshot 2|Screenshot 3|Screenshot 4| |:-:|:-:|:-:|:-:| |[![](https://i.imgur.com/5LZAnox.png)](https://i.ibb.co/crgcsRD/Screenshot-1.png)|[![](https://i.imgur.com/UUnCtqK.png)](https://i.ibb.co/phpCQX3/Screenshot-2.png)|[![](https://i.imgur.com/yF7W6O6.png)](https://i.ibb.co/vmQs8DT/Screenshot-3.png)|[![](https://i.imgur.com/Q7kj3YU.png)](https://i.ibb.co/BKHhBTw/Screenshot-4.png)| ___ #### **FFprobe:** ``` ffprobe version 5.0 Copyright (c) 2007-2022 the FFmpeg developers built with gcc 11.2.0 (GCC) configuration: ... libavutil 57. 17.100 / 57. 17.100 libavcodec 59. 18.100 / 59. 18.100 libavformat 59. 16.100 / 59. 16.100 libavdevice 59. 4.100 / 59. 4.100 libavfilter 8. 24.100 / 8. 24.100 libswscale 6. 4.100 / 6. 4.100 libswresample 4. 3.100 / 4. 3.100 libpostproc 56. 3.100 / 56. 3.100 Input #0, matroska,webm, from 'Log Horizon (2013) - S03E01 - Rayneshia's Marriage.mkv': Metadata: creation_time : 2022-04-27T17:41:58.000000Z ENCODER : Lavf59.16.100 Duration: 00:24:32.81, start: -0.007000, bitrate: 2090 kb/s Chapters: Chapter #0:0: start 0.007000, end 61.985578 Metadata: title : Avant Chapter #0:1: start 61.985578, end 152.033867 Metadata: title : OP Chapter #0:2: start 152.033867, end 664.087067 Metadata: title : Part A Chapter #0:3: start 664.087067, end 1355.027333 Metadata: title : Part B Chapter #0:4: start 1355.027333, end 1444.992200 Metadata: title : ED Chapter #0:5: start 1444.992200, end 1472.812000 Metadata: title : Next Stream #0:0(jpn): Video: hevc (Main 10), yuv420p10le(tv), 1920x1080 [SAR 1:1 DAR 16:9], 23.98 fps, 23.98 tbr, 1k tbn Metadata: title : [BDMV] Japanese ENCODER : Lavc59.18.100 libx265 BPS : 1787384 DURATION : 00:24:32.812000000 NUMBER_OF_FRAMES: 35312 NUMBER_OF_BYTES : 329060168 _STATISTICS_WRITING_APP: mkvmerge v67.0.0 ('Under Stars') 64-bit _STATISTICS_WRITING_DATE_UTC: 2022-04-27 17:41:58 _STATISTICS_TAGS: BPS DURATION NUMBER_OF_FRAMES NUMBER_OF_BYTES Stream #0:1(jpn): Audio: opus, 48000 Hz, stereo, fltp Metadata: title : [BDMV] Japanese ENCODER : Lavc59.18.100 libopus BPS : 128163 DURATION : 00:24:32.813000000 NUMBER_OF_FRAMES: 73641 NUMBER_OF_BYTES : 23595157 _STATISTICS_WRITING_APP: mkvmerge v67.0.0 ('Under Stars') 64-bit _STATISTICS_WRITING_DATE_UTC: 2022-04-27 17:41:58 _STATISTICS_TAGS: BPS DURATION NUMBER_OF_FRAMES NUMBER_OF_BYTES Stream #0:2(eng): Audio: aac (LC), 48000 Hz, stereo, fltp (default) Metadata: title : [EMBER] English BPS : 128643 DURATION : 00:24:30.036000000 NUMBER_OF_FRAMES: 68908 NUMBER_OF_BYTES : 23638835 _STATISTICS_WRITING_APP: mkvmerge v67.0.0 ('Under Stars') 64-bit _STATISTICS_WRITING_DATE_UTC: 2022-04-27 17:41:58 _STATISTICS_TAGS: BPS DURATION NUMBER_OF_FRAMES NUMBER_OF_BYTES Stream #0:3(eng): Subtitle: ass Metadata: title : [GSK_kun] Dialogue BPS : 17441 DURATION : 00:24:26.800000000 NUMBER_OF_FRAMES: 4628 NUMBER_OF_BYTES : 3197879 _STATISTICS_WRITING_APP: mkvmerge v67.0.0 ('Under Stars') 64-bit _STATISTICS_WRITING_DATE_UTC: 2022-04-27 17:41:58 _STATISTICS_TAGS: BPS DURATION NUMBER_OF_FRAMES NUMBER_OF_BYTES Stream #0:4(eng): Subtitle: ass (default) Metadata: title : [GSK_kun] Sign&Songs BPS : 18025 DURATION : 00:23:29.530000000 NUMBER_OF_FRAMES: 4305 NUMBER_OF_BYTES : 3175882 _STATISTICS_WRITING_APP: mkvmerge v67.0.0 ('Under Stars') 64-bit _STATISTICS_WRITING_DATE_UTC: 2022-04-27 17:41:58 _STATISTICS_TAGS: BPS DURATION NUMBER_OF_FRAMES NUMBER_OF_BYTES Stream #0:5: Attachment: ttf Metadata: filename : Alpha54.ttf mimetype : application/x-truetype-font ... and these fonts: Baqa.otf, 'DeFonarts Bold.otf', GENTIUM.TTF, 'Groovy Fast.ttf', HEMIHEAD.TTF Rosario-BoldItalic.otf, SCRIPTBL.TTF, 'Squarea Regular.ttf', 'Amienne Bold.ttf', Betterize_FREE.ttf, FOTCometStdStripped-Bold.otf, grain.ttf, 'Hand Of Sean.ttf', Redressed.ttf, Rosario-Bold.otf, 'SF Theramin Gothic.ttf'. ``` ___ #### **I've included two scripts. You can either deactivate the english-audio and subtitles, or completely remove them. Please read-me.txt** *** #### **Thank you [Anonymous](https://nyaa.si/view/1519121), [GSK_kun](https://nyaa.si/user/gsk_) and [EMBER](https://nyaa.si/user/Ember_Encodes) for making this possible.** #### **Endless gratitude to GSK, for blessing us with their amazing releases over the years. You won't be forgotten.** ___ If you find anything that seems out of the ordinary, just post a comment or in my discord and I'll take a look at it.

File list

  • Log Horizon Entaku Houkai [Season 3] [BD 1080p HEVC AAC] [Dual-Audio] [V2]
    • Season 3
      • Log Horizon (2013) - S03E01 - Rayneshia's Marriage.mkv (367.0 MiB)
      • Log Horizon (2013) - S03E02 - The Duke of Akiba.mkv (326.0 MiB)
      • Log Horizon (2013) - S03E03 - The Round Table Fractures.mkv (273.6 MiB)
      • Log Horizon (2013) - S03E04 - Akiba General Election.mkv (346.2 MiB)
      • Log Horizon (2013) - S03E05 - Blessings.mkv (338.8 MiB)
      • Log Horizon (2013) - S03E06 - Immortal in Ethereal Utopia.mkv (424.2 MiB)
      • Log Horizon (2013) - S03E07 - Not a Curse.mkv (435.6 MiB)
      • Log Horizon (2013) - S03E08 - The Oldest Ancients.mkv (343.9 MiB)
      • Log Horizon (2013) - S03E09 - Adoration.mkv (351.1 MiB)
      • Log Horizon (2013) - S03E10 - Labyrinth in Akiba.mkv (461.3 MiB)
      • Log Horizon (2013) - S03E11 - Despair Genius.mkv (506.4 MiB)
      • Log Horizon (2013) - S03E12 - Song of the Nightingales.mkv (453.5 MiB)
    • Remove-Dub.bat (2.6 KiB)
    • Remove-Dub.sh (2.7 KiB)
    • Switch-to-Sub.bat (3.1 KiB)
    • Switch-to-Sub.sh (3.2 KiB)
    • read-me.txt (570 Bytes)
you think you could do the BD version of Back Arrow?

ThatWaxEllo (uploader)

User
**[@kaiserstar1](https://nyaa.si/view/1520710#com-1)**: Looks good. Join my discord, if you're wondering about details and the progress.
the english audio had some artifacts (bad quality areas), otherwise it was fine, probably the bitrate is too low.

ThatWaxEllo (uploader)

User
**@JoeGP:** Well it is untouched from the webrips. Nothing I can do about that. At the time of this release I also didn't have access to any private tracker that had the USBD, so maybe in the future someone can get it for a complete batch.