[neoHEVC] Odd Taxi [Season 1] [BD 1080p x265 HEVC AAC] [Dual Audio]

Category:
Date:
2022-04-26 15:23 UTC
Submitter:
Seeders:
22
Information:
Leechers:
9
File size:
3.7 GiB
Completed:
1254
Info hash:
51abcb08f499efe98800a47763976b62d91a5b22
![](https://i.imgur.com/RBlGp48.png) *Join **[Discord](https://discord.gg/47Q7FdB54e)** for Current Projects and Seed-Request in case of no available seeds.* **Odd Taxi [Season 1]** ![](https://i.imgur.com/ZCtSawZ.png) **[MyAnimeList](https://myanimelist.net/anime/46102/Odd_Taxi)** ![](https://i.imgur.com/3UxGuWB.png) ![](https://i.imgur.com/4iegWLL.png) **[Trailer](https://www.youtube.com/watch?v=u2h_--ng8rk)** --- **Synopsis** Eccentric and blunt, the walrus Hiroshi Odokawa lives a relatively normal life. He drives a taxi for a living, and there he meets several unique individuals: the jobless Taichi Kabasawa who is dead-set on going viral, the mysterious nurse Miho Shirakawa, the struggling comedic duo "Homo Sapiens," and Dobu, a well-known delinquent. But Odokawa's simple way of life is about to be turned upside-down. The case of a missing girl the police have been tracking leads back to him, and now both the yakuza and a duo of corrupt cops are on his tail. Set in a strangely familiar city filled with unusual individuals, Odd Taxi is a bizarre story about a humble taxi driver and the mystery of a lost high schooler. ![](https://i.imgur.com/O9WIpMi.png) --- **Language Options** I included two simple scripts that you can apply to these files to do the following (Windows only): 1. Make [Single Audio] Japanese: Throws out *English audio* and *Signs&Songs subtitles* tracks 2. Make [Single Audio] English: Throws out *Japanese audio* and *Dialogue subtitles* tracks To apply these put all the video files into the *Language Options* folder and run the .bat file. *Don't combine them and only use them once together with the base files.* --- **Source** 🗃️ Video (BDREMUX): **[[Anonymous]](https://nyaa.si/view/1519528)** 🗃️ JPN Audio (BDREMUX): **[[Anonymous]](https://nyaa.si/view/1519528)** 🗃️ ENG Audio (WEB): **[[NanDesuKa]](https://nyaa.si/view/1491261)** 🗃️ Subtitles: **[[MTBB]](https://nyaa.si/view/1420934)** 💬 *Subtitles Info: [MTBB]* *Thank you all for making this possible <3* --- **Media Info** 🆔 [Full Mediainfo incl. Encoder Settings](https://pastebin.com/dYPkUAc4) ``` General Unique ID : 12194067037140382752550578822740610699 (0x92C7DEC2E0E770F37955AE7EACE8E8B) Complete name : Odd Taxi - S01E01.mkv Format : Matroska Format version : Version 4 File size : 309 MiB Duration : 23 min 51 s Overall bit rate : 1 811 kb/s Movie name : Odd Taxi - S01E01 Encoded date : UTC 2022-04-25 22:14:45 Writing application : mkvmerge v57.0.0 ('Till The End') 64-bit Writing library : libebml v1.4.2 + libmatroska v1.6.4 Attachments : arial.ttf / arialbd.ttf / arialbi.ttf / ariali.ttf / BRIANNE'SHAND.TTF / CHALKYCHICKEN.TTF / DJBCHALKITUP.TTF / ERASERDUST.TTF / FLORA.TTF / GandhiSans-BoldItalic_0.otf / GandhiSans-Bold_0.otf / timesbd.ttf / trebuc.ttf Video ID : 1 Format : HEVC Format/Info : High Efficiency Video Coding Format profile : Main 10@L4@High Codec ID : V_MPEGH/ISO/HEVC Duration : 23 min 51 s Bit rate : 1 523 kb/s Width : 1 920 pixels Height : 1 080 pixels Display aspect ratio : 16:9 Frame rate mode : Constant Frame rate : 23.976 (24000/1001) FPS Color space : YUV Chroma subsampling : 4:2:0 Bit depth : 10 bits Bits/(Pixel*Frame) : 0.031 Stream size : 260 MiB (84%) Writing library : x265 3.5+1-f0c1022b6:[Windows][GCC 9.2.0][64 bit] 10bit Encoding settings : <Check Link Above> Default : Yes Forced : No Color range : Limited Color primaries : BT.709 Transfer characteristics : BT.709 Matrix coefficients : BT.709 Audio #1 ID : 2 Format : AAC LC Format/Info : Advanced Audio Codec Low Complexity Codec ID : A_AAC-2 Duration : 23 min 50 s Bit rate : 128 kb/s Channel(s) : 2 channels Channel layout : L R Sampling rate : 44.1 kHz Frame rate : 43.066 FPS (1024 SPF) Compression mode : Lossy Stream size : 21.8 MiB (7%) Title : English Language : English Default : Yes Forced : No Audio #2 ID : 3 Format : AAC LC Format/Info : Advanced Audio Codec Low Complexity Codec ID : A_AAC-2 Duration : 23 min 51 s Bit rate : 124 kb/s Channel(s) : 2 channels Channel layout : L R Sampling rate : 48.0 kHz Frame rate : 46.875 FPS (1024 SPF) Compression mode : Lossy Stream size : 21.2 MiB (7%) Title : Japanese Language : Japanese Default : No Forced : No Text #1 ID : 4 Format : ASS Codec ID : S_TEXT/ASS Codec ID/Info : Advanced Sub Station Alpha Duration : 23 min 49 s Bit rate : 918 b/s Count of elements : 924 Compression mode : Lossless Stream size : 160 KiB (0%) Title : Signs & Songs Language : English Default : No Forced : Yes Text #2 ID : 5 Format : ASS Codec ID : S_TEXT/ASS Codec ID/Info : Advanced Sub Station Alpha Duration : 23 min 49 s Bit rate : 1 043 b/s Count of elements : 1274 Compression mode : Lossless Stream size : 182 KiB (0%) Title : Dialogue Language : English Default : Yes Forced : No Menu 00:00:00.033 : OP 00:01:29.990 : Episode 00:22:35.000 : ED 00:23:34.980 : Preview ```

File list

  • [neoHEVC] Odd Taxi [Season 1] [BD 1080p x265 HEVC AAC] [Dual Audio]
    • Language Options
      • 1. Make [Single Audio] English.bat (254 Bytes)
      • 1. Make [Single Audio] Japanese.bat (254 Bytes)
      • mkvmerge.exe (9.6 MiB)
      • readme.txt (512 Bytes)
    • Odd Taxi - S01E01.mkv (308.9 MiB)
    • Odd Taxi - S01E02.mkv (309.4 MiB)
    • Odd Taxi - S01E03.mkv (309.2 MiB)
    • Odd Taxi - S01E04.mkv (348.9 MiB)
    • Odd Taxi - S01E05.mkv (271.1 MiB)
    • Odd Taxi - S01E06.mkv (265.8 MiB)
    • Odd Taxi - S01E07.mkv (278.9 MiB)
    • Odd Taxi - S01E08.mkv (251.1 MiB)
    • Odd Taxi - S01E09.mkv (290.3 MiB)
    • Odd Taxi - S01E10.mkv (284.2 MiB)
    • Odd Taxi - S01E11.mkv (288.7 MiB)
    • Odd Taxi - S01E12.mkv (294.6 MiB)
    • Odd Taxi - S01E13.mkv (269.9 MiB)
Finally. Thank you neo!
![](https://preview.redd.it/gg7u36anb2a51.jpg?width=640&crop=smart&auto=webp&s=9794099fd237940c2df55d119a9b284926626179)
Thank you very much