Super Mario Bros - The Great Mission to Rescue Princess Peach [MQS][Dual Audio EN JP][1080p]

Category:
Date:
2022-04-23 23:03 UTC
Submitter:
Seeders:
1
Information:
Leechers:
0
File size:
1.7 GiB
Completed:
284
Info hash:
e477d35a295339de0e5fe51500a2ed4ce3d102f2
![alt text](https://i.imgur.com/mWNn1Na.jpg) DDL - Link: https://terabox.com/s/17DubQoRdmwtcU76OsCwn1A Password: 6pmh ++++++++++++++++++++++++++++++++++++++++++++++++++++++++++++++++++ This is the low-bitrate version of Femboy Films release of Super Mario Bros - The Great Mission to Rescue Princess Peach You can view their release in the link - https://nyaa.si/view/1517928 the japanese audio included on this torrent is already the V2 audio from Femboy Films I've also included the english dubbed found on Internet Archives and on Youtube by theVideoGameProject. Synched the English dubbed on this film. note: the english dub is very hilarious not sure of the parts where it has the fandub or not: https://www.youtube.com/watch?v=F2rvJsAc6N4&ab_channel=TheVideoGameProject%21 note 2: the english dub is a fandub as I confirmed on the source, anyways its a good job on their english dub, this is the original uploader of the fandub https://www.youtube.com/watch?v=9ZsgVkmUEoU&list=PLuwC5eLEAzeuN4jGBngiQ1SlQcPN8ed6U&ab_channel=KyerEntertainment ==== Media Info==== Video ID : 1 Format : AVC Format/Info : Advanced Video Codec Format profile : Main@L4 Format settings : CABAC / 4 Ref Frames Format settings, CABAC : Yes Format settings, Reference fra : 4 frames Codec ID : V_MPEG4/ISO/AVC Duration : 1 h 1 min Bit rate : 2 241 kb/s Width : 1 440 pixels Height : 1 080 pixels Display aspect ratio : 4:3 Frame rate mode : Constant Frame rate : 23.976 (24000/1001) FPS Color space : YUV Chroma subsampling : 4:2:0 Bit depth : 8 bits Scan type : Progressive Bits/(Pixel*Frame) : 0.060 Stream size : 979 MiB (57%) Writing library : x264 core 164 r3065 ae03d92 Encoding settings : cabac=1 / ref=1 / deblock=1:0:0 / analyse=0x1:0x111 / me=hex / subme=2 / psy=1 / psy_rd=1.00:0.00 / mixed_ref=0 / me_range=16 / chroma_me=1 / trellis=0 / 8x8dct=0 / cqm=0 / deadzone=21,11 / fast_pskip=1 / chroma_qp_offset=0 / threads=12 / lookahead_threads=4 / sliced_threads=0 / nr=0 / decimate=1 / interlaced=0 / bluray_compat=0 / constrained_intra=0 / bframes=3 / b_pyramid=2 / b_adapt=1 / b_bias=0 / direct=1 / weightb=1 / open_gop=0 / weightp=1 / keyint=240 / keyint_min=24 / scenecut=40 / intra_refresh=0 / rc_lookahead=10 / rc=crf / mbtree=1 / crf=24.0 / qcomp=0.60 / qpmin=0 / qpmax=69 / qpstep=4 / vbv_maxrate=20000 / vbv_bufsize=25000 / crf_max=0.0 / nal_hrd=none / filler=0 / ip_ratio=1.40 / aq=1:1.00 Default : Yes Forced : No Color range : Limited Color primaries : BT.709 Transfer characteristics : BT.709 Matrix coefficients : BT.709 Audio #1 ID : 2 Format : FLAC Format/Info : Free Lossless Audio Codec Codec ID : A_FLAC Duration : 1 h 1 min Bit rate mode : Variable Bit rate : 1 556 kb/s Channel(s) : 2 channels Channel layout : L R Sampling rate : 48.0 kHz Frame rate : 11.719 FPS (4096 SPF) Bit depth : 24 bits Compression mode : Lossless Delay relative to video : -21 ms Stream size : 680 MiB (39%) Title : Japanese Audio V2 (Femboy Films) Writing library : libFLAC 1.3.2 (UTC 2017-01-01) Language : Japanese Default : Yes Forced : No Audio #2 ID : 3 Format : AAC LC Format/Info : Advanced Audio Codec Low Complexity Codec ID : A_AAC-2 Duration : 1 h 1 min Bit rate : 128 kb/s Channel(s) : 2 channels Channel layout : L R Sampling rate : 48.0 kHz Frame rate : 46.875 FPS (1024 SPF) Compression mode : Lossy Delay relative to video : -21 ms Stream size : 55.9 MiB (3%) Title : English Dubbed Language : English Default : No Forced : No Text ID : 4 Format : ASS Codec ID : S_TEXT/ASS Codec ID/Info : Advanced Sub Station Alpha Duration : 1 h 0 min Bit rate : 109 b/s Count of elements : 849 Compression mode : Lossless Stream size : 48.9 KiB (0%) Title : English Subtitles Language : English Default : Yes Forced : No

File list

  • Super Mario Bros - The Great Mission to Rescue Princess Peach [MQS][Dual Audio EN JP][1080p].mkv (1.7 GiB)
Amazing, thanks for all the hard work