[Queron] Love Live! Nijigasaki 3rd Live! ~Yume no Hajimari~ (BD 1080p HEVC 10bit FLAC 24bit)

Category:
Date:
2022-04-22 13:00 UTC
Submitter:
Seeders:
8
Information:
No information.
Leechers:
2
File size:
22.1 GiB
Completed:
158
Info hash:
058cf780d75c38f6021f9e82b6db012b362ea4ad
[Source](https://nyaa.si/view/1512318) Encoded to x265 10bit CRF 22 Slow preset, Flac 24bit Level 8, Chaptered Please refer to source for setlist Disc 1 details Video ID : 1 Format : HEVC Format/Info : High Efficiency Video Coding Format profile : Main 10@L5@High Codec ID : V_MPEGH/ISO/HEVC Duration : 1 h 38 min Bit rate : 5 895 kb/s Width : 1 920 pixels Height : 1 080 pixels Display aspect ratio : 16:9 Frame rate mode : Constant Frame rate : 29.970 (30000/1001) FPS Color space : YUV Chroma subsampling : 4:2:0 Bit depth : 10 bits Bits/(Pixel*Frame) : 0.095 Stream size : 4.05 GiB (77%) Writing library : x265 3.5+36-99700fe97:[Windows][GCC 11.2.0][64 bit] 10bit Default : Yes Forced : Yes Color range : Limited Matrix coefficients : BT.709 Audio ID : 2 Format : FLAC Format/Info : Free Lossless Audio Codec Codec ID : A_FLAC Duration : 1 h 38 min Bit rate mode : Variable Bit rate : 1 777 kb/s Channel(s) : 2 channels Channel layout : L R Sampling rate : 48.0 kHz Frame rate : 11.719 FPS (4096 SPF) Bit depth : 24 bits Compression mode : Lossless Stream size : 1.22 GiB (23%) Writing library : libFLAC 1.3.4 (UTC 2022-02-20) Language : Japanese Default : Yes Forced : No

File list

  • Love Live! Nijigasaki 3rd Live! ~Yume no Hajimari~ (BD 1080p HEVC 10bit FLAC 24bit)
    • Love Live! Nijigasaki 3rd Live! ~Yume no Hajimari~ Disc 1.mkv (5.3 GiB)
    • Love Live! Nijigasaki 3rd Live! ~Yume no Hajimari~ Disc 2.mkv (4.7 GiB)
    • Love Live! Nijigasaki 3rd Live! ~Yume no Hajimari~ Disc 3.mkv (5.1 GiB)
    • Love Live! Nijigasaki 3rd Live! ~Yume no Hajimari~ Disc 4.mkv (5.5 GiB)
    • Love Live! Nijigasaki 3rd Live! ~Yume no Hajimari~ Disc 5.mkv (1.5 GiB)
Thanks so much! Could you also encode the Saint Snow 1st GIG that is on here somewhere? I think that's the only one that's out there that hasn't been encoded now. My hard drive will thank you greatly :)
Thanks so much!