Haikyuu!!.S04.v2.1080p.Blu-Ray.10-Bit.Dual-Audio.DTS-HD.x265-iAHD

Category:
Date:
2022-04-17 01:18 UTC
Submitter:
Seeders:
4
Information:
No information.
Leechers:
1
File size:
50.1 GiB
Completed:
239
Info hash:
5c1b226cce23906e8f9a0066ea167576a1770759
NOTE: V1 MISSING E18 WITH DOUBLE E19 Video ID : 1 Format : HEVC Format/Info : High Efficiency Video Coding Format profile : Main 10@L5@Main Codec ID : V_MPEGH/ISO/HEVC Duration : 23 min 58 s Bit rate : 7 652 kb/s Width : 1 920 pixels Height : 1 080 pixels Display aspect ratio : 16:9 Frame rate mode : Constant Frame rate : 23.976 (24000/1001) FPS Color space : YUV Chroma subsampling : 4:2:0 (Type 0) Bit depth : 10 bits Bits/(Pixel*Frame) : 0.154 Stream size : 1.28 GiB (71%) Writing library : x265 3.5+1-f0c1022b6:[Windows][GCC 10.2.0][64 bit] 10bit Encoding settings : cpuid=1111039 / frame-threads=4 / numa-pools=16 / wpp / no-pmode / no-pme / no-psnr / no-ssim / log-level=2 / input-csp=1 / input-res=1920x1080 / interlace=0 / total-frames=0 / level-idc=0 / high-tier=1 / uhd-bd=0 / ref=6 / no-allow-non-conformance / no-repeat-headers / annexb / no-aud / no-hrd / info / hash=0 / no-temporal-layers / open-gop / min-keyint=24 / keyint=240 / gop-lookahead=0 / bframes=16 / b-adapt=2 / b-pyramid / bframe-bias=0 / rc-lookahead=50 / lookahead-slices=4 / scenecut=40 / hist-scenecut=0 / radl=0 / no-splice / no-intra-refresh / ctu=32 / min-cu-size=8 / no-rect / no-amp / max-tu-size=32 / tu-inter-depth=1 / tu-intra-depth=3 / limit-tu=0 / rdoq-level=2 / dynamic-rd=0.00 / no-ssim-rd / signhide / tskip / nr-intra=0 / nr-inter=0 / no-constrained-intra / no-strong-intra-smoothing / max-merge=3 / limit-refs=3 / limit-modes / me=3 / subme=3 / merange=57 / temporal-mvp / no-frame-dup / no-hme / weightp / no-weightb / no-analyze-src-pics / deblock=1:1 / no-sao / no-sao-non-deblock / rd=4 / selective-sao=0 / no-early-skip / rskip / no-fast-intra / tskip-fast / no-cu-lossless / no-b-intra / no-splitrd-skip / rdpenalty=0 / psy-rd=0.80 / psy-rdoq=2.00 / no-rd-refine / no-lossless / cbqpoffs=0 / crqpoffs=0 / rc=crf / crf=16.0 / qcomp=0.60 / qpstep=4 / stats-write=0 / stats-read=0 / ipratio=1.40 / pbratio=1.30 / aq-mode=3 / aq-strength=1.25 / cutree / zone-count=0 / no-strict-cbr / qg-size=32 / no-rc-grain / qpmax=69 / qpmin=0 / no-const-vbv / sar=1 / overscan=0 / videoformat=5 / range=0 / colorprim=1 / transfer=1 / colormatrix=1 / chromaloc=1 / chromaloc-top=0 / chromaloc-bottom=0 / display-window=0 / cll=0,0 / min-luma=0 / max-luma=1023 / log2-max-poc-lsb=8 / vui-timing-info / vui-hrd-info / slices=1 / no-opt-qp-pps / no-opt-ref-list-length-pps / no-multi-pass-opt-rps / scenecut-bias=0.05 / hist-threshold=0.03 / no-opt-cu-delta-qp / no-aq-motion / no-hdr10 / no-hdr10-opt / no-dhdr10-opt / no-idr-recovery-sei / analysis-reuse-level=0 / analysis-save-reuse-level=0 / analysis-load-reuse-level=0 / scale-factor=0 / refine-intra=0 / refine-inter=0 / refine-mv=1 / refine-ctu-distortion=0 / no-limit-sao / ctu-info=0 / no-lowpass-dct / refine-analysis-type=0 / copy-pic=1 / max-ausize-factor=1.0 / no-dynamic-refine / no-single-sei / no-hevc-aq / no-svt / no-field / qp-adaptation-range=1.00 / scenecut-aware-qp=0conformance-window-offsets / right=0 / bottom=0 / decoder-max-rate=0 / no-vbv-live-multi-pass Language : Japanese Default : Yes Forced : No Color range : Limited Color primaries : BT.709 Transfer characteristics : BT.709 Matrix coefficients : BT.709 Audio #1 ID : 2 Format : DTS XLL Format/Info : Digital Theater Systems Commercial name : DTS-HD Master Audio Codec ID : A_DTS Duration : 23 min 58 s Bit rate mode : Variable Bit rate : 1 574 kb/s Channel(s) : 2 channels Channel layout : L R Sampling rate : 48.0 kHz Frame rate : 93.750 FPS (512 SPF) Bit depth : 24 bits Compression mode : Lossless Stream size : 270 MiB (15%) Language : English Default : Yes Forced : No Audio #2 ID : 3 Format : DTS XLL Format/Info : Digital Theater Systems Commercial name : DTS-HD Master Audio Codec ID : A_DTS Duration : 23 min 58 s Bit rate mode : Variable Bit rate : 1 577 kb/s Channel(s) : 2 channels Channel layout : L R Sampling rate : 48.0 kHz Frame rate : 93.750 FPS (512 SPF) Bit depth : 24 bits Compression mode : Lossless Stream size : 270 MiB (15%) Language : Japanese Default : Yes Forced : No Text #1 ID : 4 Format : PGS Muxing mode : zlib Codec ID : S_HDMV/PGS Codec ID/Info : Picture based subtitle format used on BDs/HD-DVDs Duration : 23 min 33 s Bit rate : 13.0 kb/s Count of elements : 117 Stream size : 2.19 MiB (0%) Title : Signs / Songs Language : English Default : Yes Forced : No Text #2 ID : 5 Format : PGS Muxing mode : zlib Codec ID : S_HDMV/PGS Codec ID/Info : Picture based subtitle format used on BDs/HD-DVDs Duration : 23 min 49 s Bit rate : 67.1 kb/s Count of elements : 722 Stream size : 11.4 MiB (1%) Title : Dialogue Language : English Default : No Forced : No Menu 00:00:00.000 : en:Chapter 01 00:01:06.984 : en:Chapter 02 00:02:37.032 : en:Chapter 03 00:14:39.087 : en:Chapter 04 00:22:22.174 : en:Chapter 05 00:23:52.014 : en:Chapter 06

File list

  • Haikyuu!!.S04.1080p.Blu-Ray.10-Bit.Dual-Audio.DTS-HD.x265-iAHD
    • Specials
      • Haikyuu!!.S00E08.1080p.Blu-Ray.10-Bit.Dual-Audio.DTS-HD.x265-iAHD.mkv (1.8 GiB)
      • Haikyuu!!.S00E09.1080p.Blu-Ray.10-Bit.Dual-Audio.DTS-HD.x265-iAHD.mkv (1.8 GiB)
    • Haikyuu!!.S04E01.1080p.Blu-Ray.10-Bit.Dual-Audio.DTS-HD.x265-iAHD.mkv (1.8 GiB)
    • Haikyuu!!.S04E02.1080p.Blu-Ray.10-Bit.Dual-Audio.DTS-HD.x265-iAHD.mkv (1.8 GiB)
    • Haikyuu!!.S04E03.1080p.Blu-Ray.10-Bit.Dual-Audio.DTS-HD.x265-iAHD.mkv (1.9 GiB)
    • Haikyuu!!.S04E04.1080p.Blu-Ray.10-Bit.Dual-Audio.DTS-HD.x265-iAHD.mkv (1.8 GiB)
    • Haikyuu!!.S04E05.1080p.Blu-Ray.10-Bit.Dual-Audio.DTS-HD.x265-iAHD.mkv (1.8 GiB)
    • Haikyuu!!.S04E06.1080p.Blu-Ray.10-Bit.Dual-Audio.DTS-HD.x265-iAHD.mkv (1.9 GiB)
    • Haikyuu!!.S04E07.1080p.Blu-Ray.10-Bit.Dual-Audio.DTS-HD.x265-iAHD.mkv (1.8 GiB)
    • Haikyuu!!.S04E08.1080p.Blu-Ray.10-Bit.Dual-Audio.DTS-HD.x265-iAHD.mkv (1.9 GiB)
    • Haikyuu!!.S04E09.1080p.Blu-Ray.10-Bit.Dual-Audio.DTS-HD.x265-iAHD.mkv (1.9 GiB)
    • Haikyuu!!.S04E10.1080p.Blu-Ray.10-Bit.Dual-Audio.DTS-HD.x265-iAHD.mkv (1.9 GiB)
    • Haikyuu!!.S04E11.1080p.Blu-Ray.10-Bit.Dual-Audio.DTS-HD.x265-iAHD.mkv (1.9 GiB)
    • Haikyuu!!.S04E12.1080p.Blu-Ray.10-Bit.Dual-Audio.DTS-HD.x265-iAHD.mkv (1.8 GiB)
    • Haikyuu!!.S04E13.1080p.Blu-Ray.10-Bit.Dual-Audio.DTS-HD.x265-iAHD.mkv (1.8 GiB)
    • Haikyuu!!.S04E14.1080p.Blu-Ray.10-Bit.Dual-Audio.DTS-HD.x265-iAHD.mkv (1.8 GiB)
    • Haikyuu!!.S04E15.1080p.Blu-Ray.10-Bit.Dual-Audio.DTS-HD.x265-iAHD.mkv (1.8 GiB)
    • Haikyuu!!.S04E16.1080p.Blu-Ray.10-Bit.Dual-Audio.DTS-HD.x265-iAHD.mkv (1.8 GiB)
    • Haikyuu!!.S04E17.1080p.Blu-Ray.10-Bit.Dual-Audio.DTS-HD.x265-iAHD.mkv (1.9 GiB)
    • Haikyuu!!.S04E18.v2.1080p.Blu-Ray.10-Bit.Dual-Audio.DTS-HD.x265-iAHD.mkv (1.9 GiB)
    • Haikyuu!!.S04E19.1080p.Blu-Ray.10-Bit.Dual-Audio.DTS-HD.x265-iAHD.mkv (2.0 GiB)
    • Haikyuu!!.S04E20.1080p.Blu-Ray.10-Bit.Dual-Audio.DTS-HD.x265-iAHD.mkv (1.8 GiB)
    • Haikyuu!!.S04E21.1080p.Blu-Ray.10-Bit.Dual-Audio.DTS-HD.x265-iAHD.mkv (1.8 GiB)
    • Haikyuu!!.S04E22.1080p.Blu-Ray.10-Bit.Dual-Audio.DTS-HD.x265-iAHD.mkv (2.0 GiB)
    • Haikyuu!!.S04E23.1080p.Blu-Ray.10-Bit.Dual-Audio.DTS-HD.x265-iAHD.mkv (1.9 GiB)
    • Haikyuu!!.S04E24.1080p.Blu-Ray.10-Bit.Dual-Audio.DTS-HD.x265-iAHD.mkv (2.0 GiB)
    • Haikyuu!!.S04E25.1080p.Blu-Ray.10-Bit.Dual-Audio.DTS-HD.x265-iAHD.mkv (1.9 GiB)
Do you plan on doing the new Knights of Sidonia movie from Funimation that just came out?

RJS

User
Plz upload My Hero Academia Season 5 Part 1 BD
Is episode 18 the only change made iAHQ, no other changes from previous release? Thanks
Haven't seen uploads in months now :( Is the dream dead?
Looks like it. There's so many series that have had new seasons released on BluRay that iAHQ has been doing that haven't seen the light of day. Such a shame :(
Please no 😭 I am still waiting on Fruits Basket and Black Clover.
Hello, I just wanted to hop in and say that I am very grateful for what iAHQ has provided us with so much anime content, especially for the ones who are from the US releases not a lot give us that kind of luxury and I apologize if I was being rude or annoying in my previous comments about which anime I wanted to get next but I do and always look forward for new content from you as it makes me really happy. Anyway, @iAHQ just want to let you know that we miss you and I understand if you decided not to continue uploading at all or taking a break from it all but I do hope in the future we'll see more of your great content as you've done us a great service, my friend thank you so much 💖
Hopefully Daddy will be back one day ;)