[WEB] Aimer 10th Anniversary Live ''Night World'' [1080p]

Category:
Date:
2022-04-12 04:34 UTC
Submitter:
Seeders:
3
Information:
No information.
Leechers:
0
File size:
3.4 GiB
Completed:
566
Info hash:
6841386ff058fc62e390e347510984bc51cc167e
Aimer 10th Anniversary Live ''Night World'' web rip from bilibili. This is best resolution I can get. ======================================================= Previews [![Aimer-Night-World-10th-Anniversary-Live-2021-09-12-MP4-WEB-mp4-thumbs.jpg](https://i.postimg.cc/GpD2sW6X/Aimer-Night-World-10th-Anniversary-Live-2021-09-12-MP4-WEB-mp4-thumbs.jpg)](https://postimg.cc/GBcrW5LD) ======================================================= File Info : General Format : MPEG-4 Format profile : Base Media Codec ID : isom (isom/iso2/avc1/mp41) File size : 3.42 GiB Duration : 2 h 47 min Overall bit rate : 2 931 kb/s Description : Packed by Bilibili XCoder v2.0.2 Writing application : Lavf58.29.100 Video ID : 1 Format : AVC Format/Info : Advanced Video Codec Format profile : High@L5 Format settings : CABAC / 6 Ref Frames Format settings, CABAC : Yes Format settings, Reference : 6 frames Codec ID : avc1 Codec ID/Info : Advanced Video Coding Duration : 2 h 47 min Bit rate : 2 626 kb/s Width : 1 920 pixels Height : 1 080 pixels Display aspect ratio : 16:9 Frame rate mode : Variable Frame rate : 30.000 FPS Minimum frame rate : 29.358 FPS Maximum frame rate : 30.332 FPS Color space : YUV Chroma subsampling : 4:2:0 Bit depth : 8 bits Scan type : Progressive Bits/(Pixel*Frame) : 0.042 Stream size : 3.06 GiB (90%) Color range : Limited Color primaries : BT.709 Transfer characteristics : BT.709 Matrix coefficients : BT.709 Codec configuration box : avcC Audio ID : 2 Format : AAC LC Format/Info : Advanced Audio Codec Low Complexity Codec ID : mp4a-40-2 Duration : 2 h 47 min Bit rate mode : Constant Bit rate : 295 kb/s Channel(s) : 2 channels Channel layout : L R Sampling rate : 48.0 kHz Frame rate : 46.875 FPS (1024 SPF) Compression mode : Lossy Stream size : 353 MiB (10%) Default : Yes Alternate group : 1 Note : My upload speed not that great, expect slow time to complete.

File list

  • Aimer 10th Anniversary Live ''Night World''
    • Aimer – “Night World” 10th Anniversary Live (2021.09.12) [MP4 WEB].mp4 (3.4 GiB)
    • Aimer – “Night World” 10th Anniversary Live (2021.09.12) [MP4 WEB].txt (4.5 KiB)
Thank you but if someone tell me how to achieve 1980x1080 download from bilibili, i got app eventhough i can't understand it. What app on phone? thank you...

shinjitekure (uploader)

User
@animegirl2020 I use online web service, they can provide separate stream download for audio and video. I just muxed that file, so the quality really depends on that service to get data stream... Anyway I use pastedownload . com service to get this video..