[naiyas] BELLE | Ryuu to Sobakasu no Hime | Ryuusoba 2021 (BD 804p HEVC10 QAAC 5.1 Multiple Subtitle).mkv

Category:
Date:
2022-04-09 11:52 UTC
Submitter:
Seeders:
8
Information:
Leechers:
8
File size:
7.3 GiB
Completed:
544
Info hash:
0fe9d8914d9a5793cae47c0230bc9848749542b1
![alt text](https://i.ibb.co/2vg00Bc/MV5-BOGU2-Yjc0-Y2-Yt-MDU0-MS00-NTFi-LTlk-MGMt-OTcx-OWIz-Mjhk-Zm-Zk-Xk-Ey-Xk-Fqc-Gde-QXVy-MDA4-Nz-My.jpg) **Synopsis** | [**MAL**](https://myanimelist.net/anime/44807/Ryuu_to_Sobakasu_no_Hime) | [**Source**](https://nyaa.si/view/1503678) #### Suzu is a shy, everyday high school student living in a rural village. For years, she has only been a shadow of herself. But when she enters ā€œUā€, a massive virtual world, she escapes into her online persona as Belle, a gorgeous and globally-beloved singer. One day, her concert is interrupted by a monstrous creature chased by vigilantes. As their hunt escalates, Suzu embarks on an emotional and epic quest to uncover the identity of this mysterious "beast" and to discover her true self in a world where you can be anyone. --- Filters ( Degrain + Rescale + Deband + AA ) to fix the ugly banding from the while maintining the Line Art same as the source, and proper crop Subtitle restyled and reposition to fit 804p viewing ``` General Unique ID : 313235981167797471441257744427477569764 (0xEBA70E3A6DDB5A7D049C8AA7BB4710E4) Complete name : F:\Anime Movies\[naiyas] BELLE 2021 (BD 804p HEVC10 QAAC 5.1 Multiple Subtitle).mkv Format : Matroska Format version : Version 4 File size : 7.31 GiB Duration : 2 h 1 min Overall bit rate : 8 634 kb/s Movie name : [naiyas] BELLE 2021 (BD 804p HEVC10 QAAC 5.1 Multiple Subtitle) Encoded date : UTC 2022-04-09 10:50:15 Writing application : mkvmerge v66.0.0 ('Josie') 64-bit Writing library : libebml v1.4.2 + libmatroska v1.6.4 Attachments : CronosPro-Semibold.ttf Video ID : 1 Format : HEVC Format/Info : High Efficiency Video Coding Format profile : Main 10@L4@Main Codec ID : V_MPEGH/ISO/HEVC Duration : 2 h 1 min Bit rate : 7 925 kb/s Width : 1 920 pixels Height : 804 pixels Display aspect ratio : 2.40:1 Frame rate mode : Variable Frame rate : 23.976 (24000/1001) FPS Color space : YUV Chroma subsampling : 4:2:0 Bit depth : 10 bits Bits/(Pixel*Frame) : 0.214 Stream size : 6.71 GiB (92%) Title : naiyas HEVC10 Writing library : x265 3.5+37+12-4e46995bc:[Windows][MSVC 1931][64 bit] 10bit Encoding settings : cpuid=1111039 / frame-threads=5 / numa-pools=24 / wpp / no-pmode / no-pme / no-psnr / no-ssim / log-level=2 / input-csp=1 / input-res=1920x804 / interlace=0 / total-frames=174432 / level-idc=0 / high-tier=1 / uhd-bd=0 / ref=6 / no-allow-non-conformance / no-repeat-headers / annexb / no-aud / no-eob / no-eos / no-hrd / info / hash=0 / no-temporal-layers / no-open-gop / min-keyint=23 / keyint=250 / gop-lookahead=0 / bframes=10 / b-adapt=2 / b-pyramid / bframe-bias=0 / rc-lookahead=100 / lookahead-slices=4 / scenecut=40 / no-hist-scenecut / radl=0 / no-splice / no-intra-refresh / ctu=64 / min-cu-size=8 / rect / no-amp / max-tu-size=32 / tu-inter-depth=1 / tu-intra-depth=1 / limit-tu=0 / rdoq-level=2 / dynamic-rd=0.00 / no-ssim-rd / signhide / no-tskip / nr-intra=0 / nr-inter=0 / no-constrained-intra / no-strong-intra-smoothing / max-merge=4 / limit-refs=3 / no-limit-modes / me=2 / subme=7 / merange=57 / temporal-mvp / no-frame-dup / no-hme / weightp / no-weightb / no-analyze-src-pics / deblock=1:-1 / no-sao / no-sao-non-deblock / rd=4 / selective-sao=0 / no-early-skip / no-rskip / no-fast-intra / no-tskip-fast / no-cu-lossless / no-b-intra / no-splitrd-skip / rdpenalty=0 / psy-rd=2.00 / psy-rdoq=1.00 / no-rd-refine / no-lossless / cbqpoffs=0 / crqpoffs=0 / rc=crf / crf=16.0 / qcomp=0.60 / qpstep=4 / stats-write=0 / stats-read=0 / ipratio=1.40 / pbratio=1.30 / aq-mode=3 / aq-strength=1.00 / aq-bias-strength=1.00 / no-cutree / zone-count=0 / no-strict-cbr / qg-size=32 / no-rc-grain / qpmax=69 / qpmin=0 / no-const-vbv / sar=0 / overscan=0 / videoformat=5 / range=0 / colorprim=1 / transfer=1 / colormatrix=1 / chromaloc=0 / display-window=0 / cll=0,0 / min-luma=0 / max-luma=1023 / log2-max-poc-lsb=8 / vui-timing-info / vui-hrd-info / slices=1 / no-opt-qp-pps / no-opt-ref-list-length-pps / no-multi-pass-opt-rps / scenecut-bias=0.05 / hist-threshold=0.03 / no-opt-cu-delta-qp / no-aq-motion / no-hdr10 / no-hdr10-opt / no-dhdr10-opt / no-idr-recovery-sei / analysis-reuse-level=0 / analysis-save-reuse-level=0 / analysis-load-reuse-level=0 / scale-factor=0 / refine-intra=0 / refine-inter=0 / refine-mv=1 / refine-ctu-distortion=0 / no-limit-sao / ctu-info=0 / no-lowpass-dct / refine-analysis-type=0 / copy-pic=1 / max-ausize-factor=1.0 / no-dynamic-refine / no-single-sei / no-hevc-aq / no-svt / no-field / qp-adaptation-range=1.00 / scenecut-aware-qp=0conformance-window-offsets / right=0 / bottom=0 / decoder-max-rate=0 / no-vbv-live-multi-pass Language : Japanese Default : Yes Forced : No Color range : Limited Color primaries : BT.709 Transfer characteristics : BT.709 Matrix coefficients : BT.709 Audio ID : 2 Format : AAC LC Format/Info : Advanced Audio Codec Low Complexity Codec ID : A_AAC-2 Duration : 2 h 1 min Bit rate : 705 kb/s Channel(s) : 6 channels Channel layout : C L R Ls Rs LFE Sampling rate : 48.0 kHz Frame rate : 46.875 FPS (1024 SPF) Compression mode : Lossy Delay relative to video : 20 ms Stream size : 611 MiB (8%) Title : QAAC 5.1 Language : Japanese Default : No Forced : No Text #1 ID : 3 Format : ASS Codec ID : S_TEXT/ASS Codec ID/Info : Advanced Sub Station Alpha Duration : 1 h 54 min Bit rate : 78 b/s Count of elements : 1407 Compression mode : Lossless Stream size : 65.6 KiB (0%) Title : English (naiyas) Language : English Default : Yes Forced : No ``` ![alt text](https://i.slow.pics/L3R3FP1a.png) ![alt text](https://i.slow.pics/8v5C6DLE.png) ![alt text](https://i.slow.pics/It3i8Zz1.png) ![alt text](https://i.slow.pics/Chwx0wir.png)

File list

  • [naiyas] BELLE 2021 (BD 804p HEVC10 QAAC 5.1 Multiple Subtitle).mkv (7.3 GiB)
thanks but official subtitle need some work too

naiyas (uploader)

User
@Aryma let's just wait for the funsub or the USBD official sub for additional fixes
i mean there timing problems and some typo that you can fix with spell check tools and grammar check can help too there nothing hard except add fonts or migrating auto karaoke effects
Appreciate this!!