[naiyas] The Rising of the Shield Hero - Tate no Yuusha no Nariagari - S02E01 (WEBDL 1080p HEVC10 AAC Multiple Subtitle).mkv

Category:
Date:
2022-04-08 03:31 UTC
Submitter:
Seeders:
1
Information:
Leechers:
0
File size:
1.0 GiB
Completed:
236
Info hash:
9094f8c0270c476637d8736777192cbf5244f40e
##### **Source & subs quality checker | CR WEBDL** **ripper OASC from dkb team** ##### **Subtitles** En, Spa-LA, Spa-(ES-EU), Fre, PT-BR, Ita. Ger, Rus (missing sub Arabic) ##### **Encoder:** **naiyas** | Overall quality much better than CR ***( Deband + AA )*** ``` General Unique ID : 295630136077095564935154781591968103329 (0xDE684B0C1A2AD5DA4BC1601F0CC33BA1) Complete name : F:\Anime 2022 (Spring)\[naiyas] Tate no Yuusha no Nariagari - (WEBDL 1080p HEVC10 AAC Multiple Subtitle)\[naiyas] Tate no Yuusha no Nariagari - S02E01 (WEBDL 1080p HEVC10 AAC Multiple Subtitle).mkv Format : Matroska Format version : Version 4 File size : 1.03 GiB Duration : 23 min 41 s Overall bit rate : 6 197 kb/s Movie name : [naiyas] The Rising of the Shield Hero - Tate no Yuusha no Nariagari - S02E01 (WEBDL 1080p HEVC10 AAC Multiple Subtitle) Encoded date : UTC 2022-04-08 03:04:38 Writing application : mkvmerge v66.0.0 ('Josie') 64-bit Writing library : libebml v1.4.2 + libmatroska v1.6.4 Video ID : 1 Format : HEVC Format/Info : High Efficiency Video Coding Format profile : Main 10@L5@Main Codec ID : V_MPEGH/ISO/HEVC Duration : 23 min 40 s Bit rate : 6 071 kb/s Width : 1 920 pixels Height : 1 080 pixels Display aspect ratio : 16:9 Frame rate mode : Variable Frame rate : 23.976 FPS Color space : YUV Chroma subsampling : 4:2:0 Bit depth : 10 bits Bits/(Pixel*Frame) : 0.122 Stream size : 1.00 GiB (98%) Title : [DKB Team] naiyas HEVC10 Writing library : x265 3.5+37+12-4e46995bc:[Windows][MSVC 1931][64 bit] 10bit Encoding settings : cpuid=1111039 / frame-threads=4 / numa-pools=12 / wpp / no-pmode / no-pme / no-psnr / no-ssim / log-level=2 / input-csp=1 / input-res=1920x1080 / interlace=0 / total-frames=34046 / level-idc=0 / high-tier=1 / uhd-bd=0 / ref=6 / no-allow-non-conformance / no-repeat-headers / annexb / no-aud / no-eob / no-eos / no-hrd / info / hash=0 / no-temporal-layers / no-open-gop / min-keyint=23 / keyint=250 / gop-lookahead=0 / bframes=10 / b-adapt=2 / b-pyramid / bframe-bias=0 / rc-lookahead=100 / lookahead-slices=4 / scenecut=40 / no-hist-scenecut / radl=0 / no-splice / no-intra-refresh / ctu=64 / min-cu-size=8 / rect / no-amp / max-tu-size=32 / tu-inter-depth=1 / tu-intra-depth=1 / limit-tu=0 / rdoq-level=2 / dynamic-rd=0.00 / no-ssim-rd / signhide / no-tskip / nr-intra=0 / nr-inter=0 / no-constrained-intra / no-strong-intra-smoothing / max-merge=4 / limit-refs=3 / no-limit-modes / me=2 / subme=7 / merange=57 / temporal-mvp / no-frame-dup / no-hme / weightp / no-weightb / no-analyze-src-pics / deblock=1:-1 / no-sao / no-sao-non-deblock / rd=4 / selective-sao=0 / no-early-skip / no-rskip / no-fast-intra / no-tskip-fast / no-cu-lossless / no-b-intra / no-splitrd-skip / rdpenalty=0 / psy-rd=2.00 / psy-rdoq=1.00 / no-rd-refine / no-lossless / cbqpoffs=0 / crqpoffs=0 / rc=crf / crf=17.5 / qcomp=0.60 / qpstep=4 / stats-write=0 / stats-read=0 / ipratio=1.40 / pbratio=1.30 / aq-mode=3 / aq-strength=1.00 / aq-bias-strength=1.00 / no-cutree / zone-count=0 / no-strict-cbr / qg-size=32 / no-rc-grain / qpmax=69 / qpmin=0 / no-const-vbv / sar=0 / overscan=0 / videoformat=5 / range=0 / colorprim=1 / transfer=1 / colormatrix=1 / chromaloc=0 / display-window=0 / cll=0,0 / min-luma=0 / max-luma=1023 / log2-max-poc-lsb=8 / vui-timing-info / vui-hrd-info / slices=1 / no-opt-qp-pps / no-opt-ref-list-length-pps / no-multi-pass-opt-rps / scenecut-bias=0.05 / hist-threshold=0.03 / no-opt-cu-delta-qp / no-aq-motion / no-hdr10 / no-hdr10-opt / no-dhdr10-opt / no-idr-recovery-sei / analysis-reuse-level=0 / analysis-save-reuse-level=0 / analysis-load-reuse-level=0 / scale-factor=0 / refine-intra=0 / refine-inter=0 / refine-mv=1 / refine-ctu-distortion=0 / no-limit-sao / ctu-info=0 / no-lowpass-dct / refine-analysis-type=0 / copy-pic=1 / max-ausize-factor=1.0 / no-dynamic-refine / no-single-sei / no-hevc-aq / no-svt / no-field / qp-adaptation-range=1.00 / scenecut-aware-qp=0conformance-window-offsets / right=0 / bottom=0 / decoder-max-rate=0 / no-vbv-live-multi-pass Language : Japanese Default : Yes Forced : No Color range : Limited Color primaries : BT.709 Transfer characteristics : BT.709 Matrix coefficients : BT.709 Audio ID : 2 Format : AAC LC Format/Info : Advanced Audio Codec Low Complexity Codec ID : A_AAC-2 Duration : 23 min 40 s Bit rate : 128 kb/s Channel(s) : 2 channels Channel layout : L R Sampling rate : 44.1 kHz Frame rate : 43.066 FPS (1024 SPF) Compression mode : Lossy Stream size : 21.7 MiB (2%) Title : Japanese Language : Japanese Default : No Forced : No ``` --- ![alt text](https://i.slow.pics/28J94z23.png) ![alt text](https://i.slow.pics/xCzxCCiN.png) ![alt text](https://i.slow.pics/m6wRz41g.png)

File list

  • [naiyas] Tate no Yuusha no Nariagari - S02E01 (WEBDL 1080p HEVC10 AAC Multiple Subtitle).mkv (1.0 GiB)