[2022-03-25] [UNARCHIVED] [Milky Queen and Mori Caillope]

Category:
Date:
2022-03-25 13:14 UTC
Submitter:
Seeders:
3
Information:
Leechers:
0
File size:
1.9 GiB
Completed:
46
Info hash:
84534463f2eff02acbf44179a53295db0dfa35c0
![Thumbnail](https://i.ibb.co/XZFMvps/2022-03-25-UNARCHIVED-Milky-Queen-and-Mori-Caillope.jpg) Format : MPEG-4 >Format profile : Base Media Codec ID : isom (isom/iso2/avc1/mp41) File size : 1.95 GiB Duration : 1 h 44 min Overall bit rate : 2 673 kb/s Movie name : milkyqueen_idol (live) 2022-03-25 18:16 Performer : milkyqueen_idol Description : [UNARCHIVED] Karaoke party with Calliope Mori!!! Recorded date : 20220325 Writing application : Lavf59.4.102 Cover : Yes Comment : https://www.twitch.tv/milkyqueen_idol/live LongDescription : [UNARCHIVED] Karaoke party with Calliope Mori!!! Video >ID : 1 Format : AVC Format/Info : Advanced Video Codec Format profile : Main@L4 Format settings : CABAC / 4 Ref Frames Format settings, CABAC : Yes Format settings, Reference : 4 frames Codec ID : avc1 Codec ID/Info : Advanced Video Coding Duration : 1 h 44 min Source duration : 1 h 44 min Bit rate : 2 503 kb/s Width : 1 920 pixels Height : 1 080 pixels Display aspect ratio : 16:9 Frame rate mode : Variable Frame rate : 59.940 (59940/1000) FPS Minimum frame rate : 29.412 FPS Maximum frame rate : 90 000.000 FPS Color space : YUV Chroma subsampling : 4:2:0 Bit depth : 8 bits Scan type : Progressive Bits/(Pixel*Frame) : 0.020 Stream size : 1.82 GiB (94%) Source stream size : 1.82 GiB (94%) Color range : Limited Color primaries : BT.709 mdhd_Duration : 6253983 Codec configuration box : avcC Audio >ID : 2 Format : AAC LC Format/Info : Advanced Audio Codec Low Complexity Codec ID : mp4a-40-2 Duration : 1 h 44 min Bit rate mode : Constant Bit rate : 155 kb/s Channel(s) : 2 channels Channel layout : L R Sampling rate : 44.1 kHz Frame rate : 43.066 FPS (1024 SPF) Compression mode : Lossy Stream size : 115 MiB (6%) Default : Yes Alternate group : 1

File list

  • [2022-03-25] [UNARCHIVED] [Milky Queen and Mori Caillope]
    • [2022-03-25] [UNARCHIVED] [Milky Queen and Mori Caillope].description (48 Bytes)
    • [2022-03-25] [UNARCHIVED] [Milky Queen and Mori Caillope].jpg (70.8 KiB)
    • [2022-03-25] [UNARCHIVED] [Milky Queen and Mori Caillope].mp4 (1.9 GiB)
Hi, can I request for Chloe's latest members only ASMR? I think it was from March 14 and I can't somehow join the discord server..