[MiraiAnime] Black Fox | BLACKFOX (2019) [Movie] [BD 1080p x265 HEVC OPUS] [ENG-SUB]

Category:
Date:
2022-03-18 16:00 UTC
Submitter:
Seeders:
5
Information:
Leechers:
0
File size:
2.0 GiB
Completed:
500
Info hash:
301d421d63023f230dc240e3955e652d71b5fc94
|[![](https://i.imgur.com/5hjuMa2.jpg)](https://i.slow.pics/jTgHZzcg.png)| | :-: | | [**Black Fox / BLACKFOX - MyAnimeList.net**](https://myanimelist.net/anime/37498/Black_Fox) | ___ #### **Notes:** Restyled and retimed Erai's subtitles, added two signs and attached required fonts. ##### For requests, questions or ddl, join my (small) discord here: **https://discord.gg/8n7H3ArdCW** ##### I highly suggest you to use [mpv](https://mpv.io/) for playback. ___ **Summary:** * attached fonts * shifted subtitles * video was copied and not re-encoded * encoded the audio track from FLAC to OPUS (opusenc) * naming scheme matches [TheTVDB.com](https://thetvdb.com/movies/131794-black-fox) (for plex/radarr/emby/jellyfin/kodi compatibility) |Track-Type | Title | Attributes | |:-------------:|:-------------:|:-----:| |video|Japanese|x265 HEVC 10bit 23.976FPS 1920x1080| |audio|Japanese|48.0kHz 5.1 Opus| |subtitles|English|ass (**default**)| ___ #### **Source:** [**LowPower-Raws**](https://nyaa.si/view/1501911 "LowPower's release") - video, audio (jpn) [**Erai-raws**](https://nyaa.si/view/1181948 "Erai-raws's release") - subtitles (english) ___ #### **Screenshots:** |Screenshot 1|Screenshot 2|Screenshot 3|Screenshot 4| |:-:|:-:|:-:|:-:| |[![](https://i.imgur.com/5ftMbCt.png)](https://i.ibb.co/TRcSvFY/Screenshot-1.png)|[![](https://i.imgur.com/QEoHnzy.png)](https://i.ibb.co/D86zpc9/Screenshot-2.png)|[![](https://i.imgur.com/NnXO7jM.png)](https://i.ibb.co/7t4kxgw/Screenshot-3.png)|[![](https://i.imgur.com/CawfGgd.png)](https://i.ibb.co/TrSkFQd/Screenshot-4.png)| ___ #### **FFprobe:** ``` ffprobe version N-104716-g96caa01f13 Copyright (c) 2007-2021 the FFmpeg developers built with gcc 10 (Debian 10.2.1-6) configuration: ... libavutil 57. 9.101 / 57. 9.101 libavcodec 59. 14.100 / 59. 14.100 libavformat 59. 9.102 / 59. 9.102 libavdevice 59. 0.101 / 59. 0.101 libavfilter 8. 17.100 / 8. 17.100 libswscale 6. 1.101 / 6. 1.101 libswresample 4. 0.100 / 4. 0.100 libpostproc 56. 0.100 / 56. 0.100 Input #0, matroska,webm, from 'Black Fox (2019).mkv': Metadata: creation_time : 2022-03-18T13:59:36.000000Z ENCODER : Lavf59.9.102 Duration: 01:30:07.41, start: -0.007000, bitrate: 3164 kb/s Stream #0:0(jpn): Video: hevc (Main 10), yuv420p10le(tv), 1920x1080 [SAR 1:1 DAR 16:9], 23.98 fps, 23.98 tbr, 1k tbn (default) Metadata: title : [LowPower-Raws] Japanese BPS-eng : 2878681 DURATION-eng : 01:30:07.402000000 NUMBER_OF_FRAMES-eng: 129648 NUMBER_OF_BYTES-eng: 1945773294 _STATISTICS_WRITING_APP-eng: mkvmerge v52.0.0 ('Secret For The Mad') 64-bit _STATISTICS_WRITING_DATE_UTC-eng: 2022-03-18 13:59:36 _STATISTICS_TAGS-eng: BPS DURATION NUMBER_OF_FRAMES NUMBER_OF_BYTES Stream #0:1(jpn): Audio: opus, 48000 Hz, 5.1, fltp (default) Metadata: title : [LowPower-Raws] Japanese ENCODER : Lavf59.9.102 BPS-eng : 280659 DURATION-eng : 01:30:07.409000000 NUMBER_OF_FRAMES-eng: 270371 NUMBER_OF_BYTES-eng: 189705301 _STATISTICS_WRITING_APP-eng: mkvmerge v52.0.0 ('Secret For The Mad') 64-bit _STATISTICS_WRITING_DATE_UTC-eng: 2022-03-18 13:59:36 _STATISTICS_TAGS-eng: BPS DURATION NUMBER_OF_FRAMES NUMBER_OF_BYTES Stream #0:2(eng): Subtitle: ass (default) Metadata: title : [Erai-raws] English (edited) BPS-eng : 123 DURATION-eng : 01:21:05.490000000 NUMBER_OF_FRAMES-eng: 1050 NUMBER_OF_BYTES-eng: 75244 _STATISTICS_WRITING_APP-eng: mkvmerge v52.0.0 ('Secret For The Mad') 64-bit _STATISTICS_WRITING_DATE_UTC-eng: 2022-03-18 13:59:36 _STATISTICS_TAGS-eng: BPS DURATION NUMBER_OF_FRAMES NUMBER_OF_BYTES Stream #0:3: Attachment: none Metadata: filename : Carlito-Bold.ttf mimetype : font/ttf Stream #0:4: Attachment: none Metadata: filename : Carlito-BoldItalic.ttf mimetype : font/ttf Stream #0:5: Attachment: none Metadata: filename : jr!ha.ttf mimetype : font/ttf ``` *** #### **Many thanks to [LowPower-Raws](https://nyaa.si/user/salty1) and [Erai-raws](https://nyaa.si/user/Erai-raws) for making this possible.** ___ If you find anything that seems out of the ordinary, just post a comment or in my discord and I'll take a look at it.

File list