[naiyas] Josee to Tora to Sakana-tachi | Josee, the Tiger and the Fish 2020 - (BD 804p HEVC10 FLAC16-X3 Dual Audio).mkv

Category:
Date:
2022-03-12 10:11 UTC
Submitter:
Seeders:
1
Information:
Leechers:
0
File size:
4.4 GiB
Completed:
92
Info hash:
054ea53e2314c5728a2a9f06579a1760507a7f6a
![alt text](https://cdn.myanimelist.net/images/anime/1577/110237.jpg) ##### synopsis: Equipped with his passion for diving and admiration for marine biology, university student Tsuneo Suzukawa tries his best to juggle several part-time jobs to earn enough money to study abroad. But one night, in a fateful accident, he meets a girl in a wheelchair, driving his current path into a detour. ##### The girl, Kumiko—who prefers to be called "Josee"—initially comes off as rude. Tsuneo, however, is then convinced by Josee's grandmother to take on the paid job to be Josee's caretaker. Despite being annoyed with her bossy demeanor, Tsuneo sees the opportunity to save more funds to support his academic dream. Nonetheless, after putting up with Josee's behavior for some time, Tsuneo tries to quit, only to discover Josee's dreams of traversing the outside world—to experience a life free from her crippling condition. ##### Changing his mind, Tsuneo decides to accompany Josee in exploring the wonders that the world has to offer. Through their time together, the two begin to realize that the traits that bind them may be vital toward fulfilling their respective aspirations. ##### Sources: [**Kawaiika-Raws**](https://nyaa.si/view/1433419) | [**TTGA**](https://nyaa.si/view/1498381) | all audio transcoded to **FLAC16** ##### **Subtitles**: En **(MaxEffort)** Signs / Songs **(default)** | **Audio:** **FLAC16** 5.1 ch **English** **(default)** | [MAL](https://myanimelist.net/anime/40787/Josee_to_Tora_to_Sakana-tachi) ``` General Unique ID : 159993895332968412017064211991218144832 (0x785DB411A29DCE87BA86D10D0E04C640) Complete name : H:\Japanese Animation Movies\[naiyas] Josee to Tora to Sakana-tachi 2020 (BD 804p HEVC10 FLAC16-X3 Dual Audio).mkv Format : Matroska Format version : Version 4 File size : 4.38 GiB Duration : 1 h 38 min Overall bit rate mode : Variable Overall bit rate : 6 387 kb/s Movie name : [naiyas] Josee to Tora to Sakana-tachi 2020 (BD 804p HEVC10 FLAC16-X3 Dual Audio) Encoded date : UTC 2022-03-12 09:22:36 Writing application : mkvmerge v65.0.0 ('Too Much') 64-bit Writing library : libebml v1.4.2 + libmatroska v1.6.4 Cover : Yes Attachments : 123Marker.ttf / ARRBD_ECL.TTF / avgardneclipse.ttf / BD_Cartoon_Shout.ttf / Black Chancery.ttf / BLOCK-BERTHOLD-REGULAR.TTF / BrownBagLunch.ttf / Caveat-Regular.ttf / CCLEGENDARYLEGERDEMAIN-REG.OTF / DJBYARDSALEMARKER-BOLD.TTF / F5AJJI3A.TTF / F5AJJWEC.TTF / Folks-Bold.ttf / FOT-OEDKTRSTD-E.OTF / FOT-TSUKUAMDMINSTD-E.OTF / GANDHISANS-BOLD.OTF / GANDHISANS-BOLDITALIC.OTF / HannaHandwriting.ttf / Inkfree.ttf / Iwata Gothic Old Pr6 B.otf / K Gothic.ttf / KGINeedAFont.ttf / KGLoveSomebody-Regular.ttf / Lato-Medium.ttf / Margarine-Regular.ttf / MTCORSVA.TTF / quadraat.ttf / Roboto-Bold.ttf / rounded-mplus-1p-regular.ttf / TimKid.ttf / badseed.TTF / GandhiSans-BoldItalic.otf / MaximaTOT-Bol.otf / MERIENDAONE-REGULAR.TTF / GandhiSans-Bold.otf / cover.jpg Video ID : 1 Format : HEVC Format/Info : High Efficiency Video Coding Format profile : Main 10@L4@Main Codec ID : V_MPEGH/ISO/HEVC Duration : 1 h 38 min Bit rate : 3 265 kb/s Width : 1 920 pixels Height : 804 pixels Display aspect ratio : 2.40:1 Frame rate mode : Constant Frame rate : 23.976 (24000/1001) FPS Color space : YUV Chroma subsampling : 4:2:0 Bit depth : 10 bits Bits/(Pixel*Frame) : 0.088 Stream size : 2.24 GiB (51%) Title : (Kawaiika-Raws) Writing library : x265 3.5+1-ce882936d:[Linux][GCC 11.1.0][64 bit] 10bit Encoding settings : cpuid=1049583 / frame-threads=1 / wpp / no-pmode / no-pme / no-psnr / no-ssim / log-level=2 / input-csp=1 / input-res=1920x804 / interlace=0 / total-frames=141240 / level-idc=0 / high-tier=1 / uhd-bd=0 / ref=5 / no-allow-non-conformance / no-repeat-headers / annexb / no-aud / no-hrd / info / hash=0 / no-temporal-layers / open-gop / min-keyint=23 / keyint=250 / gop-lookahead=50 / bframes=16 / b-adapt=2 / b-pyramid / bframe-bias=0 / rc-lookahead=250 / lookahead-slices=1 / scenecut=40 / hist-scenecut=0 / radl=0 / no-splice / no-intra-refresh / ctu=64 / min-cu-size=8 / rect / amp / max-tu-size=32 / tu-inter-depth=2 / tu-intra-depth=2 / limit-tu=0 / rdoq-level=2 / dynamic-rd=0.00 / no-ssim-rd / signhide / no-tskip / nr-intra=0 / nr-inter=0 / no-constrained-intra / strong-intra-smoothing / max-merge=5 / limit-refs=2 / no-limit-modes / me=3 / subme=7 / merange=48 / temporal-mvp / no-frame-dup / no-hme / weightp / weightb / no-analyze-src-pics / deblock=1:-1 / no-sao / no-sao-non-deblock / rd=4 / selective-sao=0 / no-early-skip / no-rskip / no-fast-intra / no-tskip-fast / no-cu-lossless / b-intra / no-splitrd-skip / rdpenalty=0 / psy-rd=2.00 / psy-rdoq=2.00 / no-rd-refine / no-lossless / cbqpoffs=-2 / crqpoffs=-2 / rc=crf / crf=15.0 / qcomp=0.72 / qpstep=4 / stats-write=0 / stats-read=0 / ipratio=1.40 / pbratio=1.30 / aq-mode=3 / aq-strength=1.03 / cutree / zone-count=1 / zones: / start-frame=0 / end-frame=940 / bitrate-factor=0.850000 / no-strict-cbr / qg-size=32 / no-rc-grain / qpmax=69 / qpmin=0 / no-const-vbv / sar=1 / overscan=0 / videoformat=5 / range=0 / colorprim=1 / transfer=1 / colormatrix=1 / chromaloc=0 / display-window=0 / cll=0,0 / min-luma=0 / max-luma=1023 / log2-max-poc-lsb=8 / vui-timing-info / vui-hrd-info / slices=1 / no-opt-qp-pps / no-opt-ref-list-length-pps / no-multi-pass-opt-rps / scenecut-bias=0.05 / hist-threshold=0.03 / no-opt-cu-delta-qp / no-aq-motion / no-hdr10 / no-hdr10-opt / no-dhdr10-opt / no-idr-recovery-sei / analysis-reuse-level=0 / analysis-save-reuse-level=0 / analysis-load-reuse-level=0 / scale-factor=0 / refine-intra=0 / refine-inter=0 / refine-mv=3 / refine-ctu-distortion=0 / no-limit-sao / ctu-info=0 / no-lowpass-dct / refine-analysis-type=0 / copy-pic=1 / max-ausize-factor=1.0 / no-dynamic-refine / no-single-sei / no-hevc-aq / no-svt / no-field / qp-adaptation-range=1.00 / scenecut-aware-qp=0conformance-window-offsets / right=0 / bottom=0 / decoder-max-rate=0 / no-vbv-live-multi-pass Language : Japanese Default : Yes Forced : No Color range : Limited Color primaries : BT.709 Transfer characteristics : BT.709 Matrix coefficients : BT.709 Audio #1 ID : 2 Format : FLAC Format/Info : Free Lossless Audio Codec Codec ID : A_FLAC Duration : 1 h 38 min Bit rate mode : Variable Bit rate : 1 325 kb/s Channel(s) : 6 channels Channel layout : L R C LFE Ls Rs Sampling rate : 48.0 kHz Frame rate : 11.719 FPS (4096 SPF) Bit depth : 16 bits Compression mode : Lossless Stream size : 930 MiB (21%) Title : FLAC16 5.1 - English Writing library : libFLAC 1.3.3 (UTC 2019-08-04) Language : English Default : Yes Forced : No Text #1 ID : 5 Format : ASS Codec ID : S_TEXT/ASS Codec ID/Info : Advanced Sub Station Alpha Duration : 1 h 37 min Bit rate : 6 966 b/s Count of elements : 17824 Compression mode : Lossless Stream size : 4.84 MiB (0%) Title : Signs | Songs (MaxEffort) Language : English Default : Yes Forced : No ``` --- ![alt text](https://i.slow.pics/bec3Pv8q.png) ![alt text](https://i.slow.pics/AykLplrO.png) ![alt text](https://i.slow.pics/7Y9jQjAv.png)

File list

  • [naiyas] Josee to Tora to Sakana-tachi 2020 (BD 804p HEVC10 FLAC16-X3 Dual Audio).mkv (4.4 GiB)

naiyas (uploader)

User
means 3 FLAC16 audio stream
Good thing TTGA didn't messed up the mux this time otherwise it would have been an abomination to my subs (even tho I maintain a very good script naming scheme)

naiyas (uploader)

User
@Kaori_Miyazono > Good thing TTGA didn’t messed up the mux this time otherwise it would have been an abomination to my subs (even tho I maintain a very good script naming scheme) I rename them to gave proper credit
Oh thanks very much bud! Appreciate that ^^
is Cait-Sidhe still working in this ?
>is Cait-Sidhe still working in this ? Allegedly
*appreciation ![](https://s7.gifyu.com/images/300ceebc50e6da0ddf0.gif)