[neoHEVC] NOMAD: Megalo Box [Season 2] [BD 1080p x265 HEVC AAC] [Dual Audio]

Category:
Date:
2022-03-10 12:52 UTC
Submitter:
Seeders:
7
Information:
Leechers:
0
File size:
4.5 GiB
Completed:
393
Info hash:
8d48858a4c1b24a60c9ae565b7abfe2ef2f013b6
![](https://i.imgur.com/RBlGp48.png) *Join **[Discord](https://discord.gg/47Q7FdB54e)** for Current Projects and Seed-Request in case of no available seeds.* **Nomad: Megalo Box [Season 2]** ![](https://i.imgur.com/4iegWLL.png) **[Trailer](https://www.youtube.com/watch?v=kHBlVtrtjck)** ![](https://i.imgur.com/3UxGuWB.png) ![](https://i.imgur.com/ZCtSawZ.png) **[MyAnimeList](https://myanimelist.net/anime/40729/Nomad__Megalo_Box_2)** --- **Synopsis** Megalo Box is an advanced form of boxing where competitors wear metal frames called Gear. When the first ever Megalonia tournament took place, "Gearless" Joe became its champion and known to all as a legendary fighter. However, soon after, he lost an exhibition match against the second champion and vanished from the public eye. Seven years later, Joe now goes by "Nomad" and keeps a low profile, occasionally fighting in a few underground matches to get by. He is haunted by hallucinations and relies on a set of painkillers to numb his mind. During a match, Joe wins against an opponent, Chief, who purposefully loses for some extra cash from gamblers. Subsequently, Joe discovers that Chief is from a community of immigrants called the Casa. Chief is gradually trying to make enough money to purchase the land where they live illegally. At first, Joe hesitates to get involved, but eventually decides to lend the Casa a helping hand. ![](https://i.imgur.com/wqJ8PmG.png) --- **Language Options** I included two simple scripts that you can apply to these files to do the following (Windows only): 1. Make [Single Audio] Japanese: Throws out *English audio* and *Signs&Songs subtitles* tracks 2. Make [Single Audio] English: Throws out *Japanese audio* and *Dialogue subtitles* tracks To apply these put all the video files into the *Language Options* folder and run the .bat file. *Don't combine them and only use them once together with the base files.* --- **Comparison** *Open links, toggle with mouseclick and check title.* [![](https://i.imgur.com/E4Mm0No.png)](https://slow.pics/c/bFtG2kuk) [![](https://i.imgur.com/ENcTHyY.png)](https://slow.pics/c/PXLQXNXQ) [![](https://i.imgur.com/DKSQWEr.png)](https://slow.pics/c/DeIHJFMU) --- **Source** 🗃️ Video (BDMV): **[PikoPiko]** 🗃️ JPN Audio (BDMV): **[PikoPiko]** 🗃️ ENG Audio (WEB): **[[Golumpa]](https://nyaa.si/view/1394994)** 🗃️ Subtitles: **[[Foxtrot]](https://nyaa.si/view/1482075)** 💬 *Subtitles Info: [Foxtrot]* *Thank you all for making this possible <3* --- **Media Info** 🆔 [Full Mediainfo incl. Encoder Settings](https://pastebin.com/4ziTL2me) ``` General Unique ID : 40131731611910728797155874839246674781 (0x1E3117220A120577B2AD11EB260C1B5D) Complete name : Megalo Box - S02E01.mkv Format : Matroska Format version : Version 4 File size : 346 MiB Duration : 24 min 2 s Overall bit rate : 2 010 kb/s Movie name : Megalo Box - S02E01 Encoded date : UTC 2022-03-09 18:50:16 Writing application : mkvmerge v57.0.0 ('Till The End') 64-bit Writing library : libebml v1.4.2 + libmatroska v1.6.4 / Lavf58.76.100 Attachments : 18cents.ttf / Aero Matics Regular.ttf / ALTHEA-REGULAR.TTF / BRUSHSTROKE-REGULAR.TTF / DJB Almost Perfect.ttf / DOTMATRI.TTF / DOTMBold.TTF / double_pixel-7.ttf / Street - Plain.ttf / Sub Clear Sans Bold Italic.ttf / Sub Clear Sans Bold.ttf Video ID : 1 Format : HEVC Format/Info : High Efficiency Video Coding Format profile : Main 10@L4@High Codec ID : V_MPEGH/ISO/HEVC Duration : 24 min 2 s Bit rate : 1 737 kb/s Width : 1 920 pixels Height : 1 080 pixels Display aspect ratio : 16:9 Frame rate mode : Constant Frame rate : 23.976 (24000/1001) FPS Color space : YUV Chroma subsampling : 4:2:0 Bit depth : 10 bits Bits/(Pixel*Frame) : 0.035 Stream size : 299 MiB (86%) Writing library : x265 3.5+1-f0c1022b6:[Windows][GCC 9.2.0][64 bit] 10bit Encoding settings : <Check Link Above> Default : Yes Forced : No Color range : Limited Color primaries : BT.709 Transfer characteristics : BT.709 Matrix coefficients : BT.709 Audio #1 ID : 2 Format : AAC LC Format/Info : Advanced Audio Codec Low Complexity Codec ID : A_AAC-2 Duration : 23 min 41 s Bit rate : 139 kb/s Channel(s) : 2 channels Channel layout : L R Sampling rate : 48.0 kHz Frame rate : 46.875 FPS (1024 SPF) Compression mode : Lossy Delay relative to video : 17 ms Stream size : 23.5 MiB (7%) Title : English Language : English Default : Yes Forced : No Audio #2 ID : 3 Format : AAC LC Format/Info : Advanced Audio Codec Low Complexity Codec ID : A_AAC-2 Duration : 24 min 2 s Bit rate : 126 kb/s Channel(s) : 2 channels Channel layout : L R Sampling rate : 48.0 kHz Frame rate : 46.875 FPS (1024 SPF) Compression mode : Lossy Stream size : 21.6 MiB (6%) Title : Japanese Language : Japanese Default : No Forced : No Text #1 ID : 4 Format : ASS Codec ID : S_TEXT/ASS Codec ID/Info : Advanced Sub Station Alpha Duration : 22 min 7 s Bit rate : 271 b/s Count of elements : 318 Compression mode : Lossless Stream size : 43.9 KiB (0%) Title : Signs & Songs Language : English Default : No Forced : Yes Text #2 ID : 5 Format : ASS Codec ID : S_TEXT/ASS Codec ID/Info : Advanced Sub Station Alpha Duration : 23 min 48 s Bit rate : 317 b/s Count of elements : 507 Compression mode : Lossless Stream size : 55.3 KiB (0%) Title : Dialogue Language : English Default : Yes Forced : No Menu 00:00:00.033 : Intro 00:01:43.000 : Part A 00:11:31.000 : Part B 00:22:35.000 : ED ```

File list

  • [neoHEVC] NOMAD - Megalo Box [Season 2] [BD 1080p x265 HEVC AAC] [Dual Audio]
    • Language Options
      • 1. Make [Single Audio] English.bat (254 Bytes)
      • 1. Make [Single Audio] Japanese.bat (254 Bytes)
      • mkvmerge.exe (9.6 MiB)
      • readme.txt (512 Bytes)
    • Megalo Box - S02E01.mkv (345.6 MiB)
    • Megalo Box - S02E02.mkv (303.4 MiB)
    • Megalo Box - S02E03.mkv (322.7 MiB)
    • Megalo Box - S02E04.mkv (271.9 MiB)
    • Megalo Box - S02E05.mkv (664.1 MiB)
    • Megalo Box - S02E06.mkv (443.9 MiB)
    • Megalo Box - S02E07.mkv (302.1 MiB)
    • Megalo Box - S02E08.mkv (330.6 MiB)
    • Megalo Box - S02E09.mkv (321.4 MiB)
    • Megalo Box - S02E10.mkv (286.0 MiB)
    • Megalo Box - S02E11.mkv (225.8 MiB)
    • Megalo Box - S02E12.mkv (396.4 MiB)
    • Megalo Box - S02E13.mkv (345.0 MiB)
Came here for the description

neoborn (uploader)

User
That was quick. Unfortunately... life happened :(