[naiyas] Fate/Grand Order: (Shuukyoku Tokuiten - Kani Jikan Shinden: Solomon) Final Singularity Grand Temple of Time Solomon - (JPBD 1080p HEVC10 DTS-HD MA-X2 Multi-Subs).mkv

Category:
Date:
2022-03-09 08:25 UTC
Submitter:
Seeders:
2
Information:
Leechers:
0
File size:
12.0 GiB
Completed:
302
Info hash:
7bca25180e7409577358d5acd3225fbfe23001c0
![alt text](https://cdn.myanimelist.net/images/anime/1476/115172l.jpg) #### [**Trailer**](https://www.youtube.com/embed/cVp-DBkpL2c?enablejsapi=1&wmode=opaque&autoplay=1) | [**MAL**](https://myanimelist.net/anime/41497/Fate_Grand_Order__Shuukyoku_Tokuiten_-_Kani_Jikan_Shinden_Solomon) ##### **Synopsis:** After battling their way through all seven Singularities, the Chaldea Security Organization has finally arrived at the endpoint of the Grand Order: The Final Singularity, Grand Temple of Time: Solomon. Now is the time to defeat the root of all evil, Solomon, the King of Mages. Now is the time to reclaim the future.With the final operation looming large, Romani Archaman considers the choices he will soon have to make, Mash Kyrielight dwells on life's limitations, and Fujimaru prepares to receive a new Mystic Code. All of their many encounters have led to this moment as Fujimaru and Mash at last embark on their final operation... ##### **Subtitles:** **En** **(CR + FUNI)** ASS , **Japanese** - PGS | **( FUNI + CR )** **ES** - (**LA/EU**) ASS | **PT-BR** ASS | filters ( **Deband + AA + Rescale** ) BD have serious problem of banding so we've applied deband at minimal to fix without hurting the grain so it's improve a lot in 3D visual effects in the scene thnx to our BDMV's provider **Itoshiki Media** Group | such as ( U2 , AB and other Private Trackers ) ``` General Unique ID : 132094383295779691695597384239338891097 (0x636073EC804978D85F35254A51922759) Complete name : H:\Japanese Animation Movies\[naiyas] Fate Grand Order - Final Singularity Grand Temple of Time Solomon - (JPBD 1080p HEVC10 DTS-HD MA-X2 Multi-Subs).mkv Format : Matroska Format version : Version 4 File size : 12.0 GiB Duration : 1 h 34 min Overall bit rate mode : Variable Overall bit rate : 18.2 Mb/s Movie name : [naiyas] Fate Grand Order - Final Singularity Grand Temple of Time Solomon - (JPBD 1080p HEVC10 DTS-HD MA-X2 Multiple Subtitle) Encoded date : UTC 2022-03-09 04:52:36 Writing application : mkvmerge v65.0.0 ('Too Much') 64-bit Writing library : libebml v1.4.2 + libmatroska v1.6.4 Attachments : CronosPro-Semibold.ttf / arial.ttf / times.ttf / trebuc.ttf / NotoSans-Medium.ttf Video ID : 1 Format : HEVC Format/Info : High Efficiency Video Coding Format profile : Main 10@L5@Main Codec ID : V_MPEGH/ISO/HEVC Duration : 1 h 34 min Bit rate : 12.9 Mb/s Width : 1 920 pixels Height : 1 080 pixels Display aspect ratio : 16:9 Frame rate mode : Constant Frame rate : 23.976 (24000/1001) FPS Color space : YUV Chroma subsampling : 4:2:0 Bit depth : 10 bits Bits/(Pixel*Frame) : 0.259 Stream size : 8.48 GiB (71%) Title : naiyas HEVC - 10 Writing library : x265 3.5+12+14-106329cbd:[Windows][GCC 10.3.0][64 bit] 10bit Encoding settings : cpuid=1111039 / frame-threads=5 / numa-pools=12 / wpp / no-pmode / no-pme / no-psnr / no-ssim / log-level=2 / input-csp=1 / input-res=1920x1080 / interlace=0 / total-frames=135432 / level-idc=0 / high-tier=1 / uhd-bd=0 / ref=6 / no-allow-non-conformance / no-repeat-headers / annexb / no-aud / no-eob / no-eos / no-hrd / info / hash=0 / no-temporal-layers / no-open-gop / min-keyint=23 / keyint=250 / gop-lookahead=0 / bframes=16 / b-adapt=2 / b-pyramid / bframe-bias=0 / rc-lookahead=80 / lookahead-slices=4 / scenecut=40 / no-hist-scenecut / radl=0 / no-splice / no-intra-refresh / ctu=64 / min-cu-size=8 / rect / no-amp / max-tu-size=32 / tu-inter-depth=1 / tu-intra-depth=1 / limit-tu=0 / rdoq-level=2 / dynamic-rd=0.00 / no-ssim-rd / signhide / no-tskip / nr-intra=0 / nr-inter=0 / no-constrained-intra / no-strong-intra-smoothing / max-merge=3 / limit-refs=3 / no-limit-modes / me=3 / subme=7 / merange=57 / temporal-mvp / no-frame-dup / no-hme / weightp / no-weightb / no-analyze-src-pics / deblock=1:-1 / no-sao / no-sao-non-deblock / rd=4 / selective-sao=0 / no-early-skip / no-rskip / no-fast-intra / no-tskip-fast / no-cu-lossless / no-b-intra / no-splitrd-skip / rdpenalty=0 / psy-rd=2.00 / psy-rdoq=4.00 / no-rd-refine / no-lossless / cbqpoffs=0 / crqpoffs=0 / rc=crf / crf=15.0 / qcomp=0.60 / qpstep=4 / stats-write=0 / stats-read=0 / ipratio=1.40 / pbratio=1.30 / aq-mode=3 / aq-strength=1.00 / no-cutree / zone-count=0 / no-strict-cbr / qg-size=32 / no-rc-grain / qpmax=69 / qpmin=0 / no-const-vbv / sar=0 / overscan=0 / videoformat=5 / range=0 / colorprim=1 / transfer=1 / colormatrix=1 / chromaloc=0 / display-window=0 / cll=0,0 / min-luma=0 / max-luma=1023 / log2-max-poc-lsb=8 / vui-timing-info / vui-hrd-info / slices=1 / no-opt-qp-pps / no-opt-ref-list-length-pps / no-multi-pass-opt-rps / scenecut-bias=0.05 / hist-threshold=0.03 / no-opt-cu-delta-qp / no-aq-motion / no-hdr10 / no-hdr10-opt / no-dhdr10-opt / no-idr-recovery-sei / analysis-reuse-level=0 / analysis-save-reuse-level=0 / analysis-load-reuse-level=0 / scale-factor=0 / refine-intra=0 / refine-inter=0 / refine-mv=3 / refine-ctu-distortion=0 / no-limit-sao / ctu-info=0 / no-lowpass-dct / refine-analysis-type=0 / copy-pic=1 / max-ausize-factor=1.0 / no-dynamic-refine / no-single-sei / no-hevc-aq / no-svt / no-field / qp-adaptation-range=1.00 / scenecut-aware-qp=0 / conformance-window-right-offset=0 / conformance-window-bottom-offset=0 / decoder-max-rate=0 / no-vbv-live-multi-pass Language : Japanese Default : Yes Forced : No Color range : Limited Color primaries : BT.709 Transfer characteristics : BT.709 Matrix coefficients : BT.709 Audio #1 ID : 2 Format : DTS XLL Format/Info : Digital Theater Systems Commercial name : DTS-HD Master Audio Codec ID : A_DTS Duration : 1 h 34 min Bit rate mode : Variable Bit rate : 1 696 kb/s Channel(s) : 2 channels Channel layout : L R Sampling rate : 48.0 kHz Frame rate : 93.750 FPS (512 SPF) Bit depth : 24 bits Compression mode : Lossless Stream size : 1.12 GiB (9%) Title : 2.0 - Japanese Language : Japanese Default : No Forced : No Audio #2 ID : 3 Format : DTS XLL Format/Info : Digital Theater Systems Commercial name : DTS-HD Master Audio Codec ID : A_DTS Duration : 1 h 34 min Bit rate mode : Variable Bit rate : 3 509 kb/s Channel(s) : 6 channels Channel layout : C L R Ls Rs LFE Sampling rate : 48.0 kHz Frame rate : 93.750 FPS (512 SPF) Bit depth : 24 bits Compression mode : Lossless Stream size : 2.31 GiB (19%) Title : 5.1 - Japanese Language : Japanese Default : No Forced : No ``` --- ![alt text](https://i.slow.pics/8dFLsfov.png) ![alt text](https://i.slow.pics/VxluDZ2D.png) ![alt text](https://i.slow.pics/1bmE2Ien.png)

File list

  • [naiyas] Fate Grand Order - Final Singularity Grand Temple of Time Solomon - (JPBD 1080p HEVC10 DTS-HD MA-X2 Multi-Subs).mkv (12.0 GiB)
Nice! Any plans for Babylonia? It appears no one has done a good encode for it yet.

naiyas (uploader)

User
@DamianV8501 We have plan for the fate 2006 and so on with proper HEVC encode and AOT's series and some oldies stuff also we're fixing some uncontinued WEB series ( for archival purposes )
Sounds good, thanks for the info! I figured I'd also ask since FGO Babylonia comes before this movie and I enjoyed it quite a lot.
"BD have serious problem of banding so we’ve applied deband at minimal to fix without hurting the grain so it’s improve a lot in 3D visual effects in the scene"-really? That's a bunch of bullshit. Most blurays are perfectly fine and don't need to be fucked with.

naiyas (uploader)

User
@zrdb BDMV's are not always perfect JPBD of this seriously shit, despite how huge the size
Does this come after Babylonia in watchlist? but before Lostroom?