[neoHEVC] The World's Finest Assassin Gets Reincarnated in Another World as an Aristocrat [Season 1] [BD 1080p x265 HEVC AAC] [Dual Audio] Sekai Saikou no Ansatsusha, Isekai Kizoku ni Tensei suru

Category:
Date:
2022-03-01 13:19 UTC
Submitter:
Seeders:
4
Information:
Leechers:
3
File size:
3.7 GiB
Completed:
517
Info hash:
4cfff4f3f256ea8340629b02ce9b8da1bba2177b
![](https://i.imgur.com/RBlGp48.png) *Join **[Discord](https://discord.gg/47Q7FdB54e)** for Current Projects and Seed-Request in case of no available seeds.* **The World's Finest Assassin Gets Reincarnated in Another World as an Aristocrat / Sekai Saikou no Ansatsusha, Isekai Kizoku ni Tensei suru [Season 1]** Notes: . inserted OPED (jnzngn/hertz) . inserted eyecatch-signs . unified styling ![](https://i.imgur.com/4iegWLL.png) **[Trailer](https://www.youtube.com/watch?v=2Poci60rWzg)** ![](https://i.imgur.com/3UxGuWB.png) ![](https://i.imgur.com/ZCtSawZ.png) **[MyAnimeList](https://myanimelist.net/anime/47790/Sekai_Saikou_no_Ansatsusha_Isekai_Kizoku_ni_Tensei_suru)** --- **Synopsis** The world's greatest assassin had sworn lifelong allegiance to the organization that raised him. However, despite his loyalty, that very same organization takes action to silence him, ultimately leading to his demise. Drowning in frustration and regrets he can no longer suppress, he finds himself in an audience with a goddess attracted by his exceptional skills. The goddess offers him reincarnation into a magnificent world of swords and magic so he can perform a crucial mission: prevent that world's destruction by slaying its hero. Accepting the goddess' request, he is reborn as Lugh Tuatha Dé, the son of a noble family of assassins serving the Alvan Kingdom. Under the guidance of his father, Lugh learns new assassination techniques that significantly differ from the cold-blooded and unsympathetic killing style of his previous life. Furthermore, his other talents bloom, allowing him to meet new allies and acquaintances. Even so, Lugh knows that his efforts are far from adequate, because a monumental adversary such as the hero can only be defeated with perfection. ![](https://i.imgur.com/ZiRhrzn.png) --- **Language Options** I included two simple scripts that you can apply to these files to do the following (Windows only): 1. Make [Single Audio] Japanese: Throws out *English audio* and *Signs&Songs subtitles* tracks 2. Make [Single Audio] English: Throws out *Japanese audio* and *Dialogue subtitles* tracks To apply these put all the video files into the *Language Options* folder and run the .bat file. *Don't combine them and only use them once together with the base files.* --- **Comparison** *Open links, toggle with mouseclick and check title.* [![](https://i.imgur.com/o7CuPVT.png)](https://slow.pics/c/pHorvpGG) [![](https://i.imgur.com/94l1xLK.png)](https://slow.pics/c/ALXLRr0F) [![](https://i.imgur.com/coma3NK.png)](https://slow.pics/c/bnM6YGBg) --- **Source** 🗃️ Video (BDMV): **[NepBlanc]** 🗃️ JPN Audio (BDMV): **[NepBlanc]** 🗃️ ENG Audio (WEB): **[[Golumpa]](https://nyaa.si/view/1459960)** **[[NanDesuKa]](https://nyaa.si/view/1474145)** 🗃️ Subtitles: **[[PQC]](https://nyaa.si/view/1440768)** 💬 *Subtitles Info: [SubsPlease/PQC/jnzngn/hertz]* *Thank you all for making this possible <3* --- **Media Info** 🆔 [Full Mediainfo incl. Encoder Settings](https://pastebin.com/ATdcN61R) ``` General Unique ID : 294962081667475072942758207986632647207 (0xDDE7A16C0052349DB383458A8F126227) Complete name : The World's Finest Assassin Gets Reincarnated in Another World as an Aristocrat - S01E01.mkv Format : Matroska Format version : Version 4 File size : 332 MiB Duration : 23 min 41 s Overall bit rate : 1 959 kb/s Movie name : The World's Finest Assassin Gets Reincarnated in Another World as an Aristocrat - S01E01 Encoded date : UTC 2022-02-05 09:42:33 Writing application : mkvmerge v57.0.0 ('Till The End') 64-bit Writing library : libebml v1.4.2 + libmatroska v1.6.4 / Lavf58.76.100 Attachments : arial.ttf / arialbd.ttf / Assassin.ttf / calligraph421_bt_roman.ttf / StrawberryCupcakes.ttf / timesbd.ttf / fontin_sans.otf / GANDHISANS-BOLD.OTF / GANDHISANS-BOLDITALIC.OTF / Finnegan_LT_W04_Bold.ttf / Finnegan_LT_W04_Bold_Italic.ttf Video ID : 1 Format : HEVC Format/Info : High Efficiency Video Coding Format profile : Main 10@L4@High Codec ID : V_MPEGH/ISO/HEVC Duration : 23 min 41 s Bit rate : 1 669 kb/s Width : 1 920 pixels Height : 1 080 pixels Display aspect ratio : 16:9 Frame rate mode : Constant Frame rate : 23.976 (24000/1001) FPS Color space : YUV Chroma subsampling : 4:2:0 Bit depth : 10 bits Bits/(Pixel*Frame) : 0.034 Stream size : 283 MiB (85%) Writing library : x265 3.5+1-f0c1022b6:[Windows][GCC 9.2.0][64 bit] 10bit Encoding settings : <Check Link Above> Default : Yes Forced : No Color range : Limited Color primaries : BT.709 Transfer characteristics : BT.709 Matrix coefficients : BT.709 Audio #1 ID : 2 Format : AAC LC Format/Info : Advanced Audio Codec Low Complexity Codec ID : A_AAC-2 Duration : 23 min 40 s Bit rate : 128 kb/s Channel(s) : 2 channels Channel layout : L R Sampling rate : 44.1 kHz Frame rate : 43.066 FPS (1024 SPF) Compression mode : Lossy Stream size : 21.7 MiB (7%) Title : English Language : English Default : Yes Forced : No Audio #2 ID : 3 Format : AAC LC Format/Info : Advanced Audio Codec Low Complexity Codec ID : A_AAC-2 Duration : 23 min 41 s Bit rate : 124 kb/s Channel(s) : 2 channels Channel layout : L R Sampling rate : 48.0 kHz Frame rate : 46.875 FPS (1024 SPF) Compression mode : Lossy Stream size : 21.1 MiB (6%) Title : Japanese Language : Japanese Default : No Forced : No Text #1 ID : 4 Format : ASS Codec ID : S_TEXT/ASS Codec ID/Info : Advanced Sub Station Alpha Duration : 23 min 34 s Bit rate : 5 337 b/s Count of elements : 6252 Compression mode : Lossless Stream size : 922 KiB (0%) Title : Signs & Songs Language : English Default : No Forced : Yes Text #2 ID : 5 Format : ASS Codec ID : S_TEXT/ASS Codec ID/Info : Advanced Sub Station Alpha Duration : 23 min 41 s Bit rate : 5 428 b/s Count of elements : 6581 Compression mode : Lossless Stream size : 942 KiB (0%) Title : Dialogue Language : English Default : Yes Forced : No Menu 00:00:00.000 : :OP 00:01:30.007 : :Episode 00:22:04.950 : :ED 00:23:34.957 : :Preview ```

File list

  • [neoHEVC] The World's Finest Assassin Gets Reincarnated in Another World as an Aristocrat [Season 1] [BD 1080p x265 HEVC AAC] [Dual Audio]
    • Language Options
      • 1. Make [Single Audio] English.bat (254 Bytes)
      • 1. Make [Single Audio] Japanese.bat (254 Bytes)
      • mkvmerge.exe (9.6 MiB)
      • readme.txt (512 Bytes)
    • The World's Finest Assassin Gets Reincarnated in Another World as an Aristocrat - S01E01.mkv (332.0 MiB)
    • The World's Finest Assassin Gets Reincarnated in Another World as an Aristocrat - S01E02.mkv (333.7 MiB)
    • The World's Finest Assassin Gets Reincarnated in Another World as an Aristocrat - S01E03.mkv (283.3 MiB)
    • The World's Finest Assassin Gets Reincarnated in Another World as an Aristocrat - S01E04.mkv (319.0 MiB)
    • The World's Finest Assassin Gets Reincarnated in Another World as an Aristocrat - S01E05.mkv (283.7 MiB)
    • The World's Finest Assassin Gets Reincarnated in Another World as an Aristocrat - S01E06.mkv (310.2 MiB)
    • The World's Finest Assassin Gets Reincarnated in Another World as an Aristocrat - S01E07.mkv (247.9 MiB)
    • The World's Finest Assassin Gets Reincarnated in Another World as an Aristocrat - S01E08.mkv (253.4 MiB)
    • The World's Finest Assassin Gets Reincarnated in Another World as an Aristocrat - S01E09.mkv (335.8 MiB)
    • The World's Finest Assassin Gets Reincarnated in Another World as an Aristocrat - S01E10.mkv (361.7 MiB)
    • The World's Finest Assassin Gets Reincarnated in Another World as an Aristocrat - S01E11.mkv (404.4 MiB)
    • The World's Finest Assassin Gets Reincarnated in Another World as an Aristocrat - S01E12.mkv (335.8 MiB)

neoborn (uploader)

User
In case you downloaded the first upload of this. In the **Language Options** folder are 3 older encoded versions of episodes that are obsolete and can just be deleted. I've reuploaded this without those useless 800MB to save on data :>
Thanks for the quick fix!
I'm assuming that since this is the BD... uncensored??

neoborn (uploader)

User
**@tktorrents** It's the same source as all the other uploads of the BD at the time of upload. I've seen others mark theirs as uncensored and this here is sourced from the same JPBD. I don't personally check scenes for naughtyness specifically and therefor don't mark the torrents that way.
BD for this series came out very quick, the same month as the show ended. Thank you!

neoborn (uploader)

User
In case anybody got problem with the bat-scripts not working. Try copying the files to a shorter path (for example C:\temp) and try again. Windows path length restrictions might interfere otherwise.