[naiyas] Cardcaptor Sakura | Card Captor Sakura Movie - I 1999 (BD 1080p HEVC - 10 FLAC-AC3 Dual Audio).mkv

Category:
Date:
2022-03-01 07:48 UTC
Submitter:
Seeders:
5
Information:
Leechers:
0
File size:
7.5 GiB
Completed:
169
Info hash:
b02e99a43844d65a1308ab32acb5652312f72e17
![alt text](https://cdn.myanimelist.net/images/anime/1733/90336.jpg) **Source:** JPBD + Coalgirls | [**MAL**](https://myanimelist.net/anime/371/Cardcaptor_Sakura_Movie_1) Cleaning without lossing the quality of grains, to give **remaster** look, we use **crf18** to prevent bloating the size (so far this is best quality encode you've ever find in nyaa) *also don't forget to seed to keep it alive* 😘 **Planning** to **encode** the **series** and the **Movie II** --- **Synopsis** During an after-school shopping trip, Sakura Kinomoto decides to participate in the Tomoeda Shopping District's year-end lottery, with the grand prize being a round trip to Hong Kong. Surprisingly, she draws the winning ball. Alongside her best friend Tomoyo Daidouji, her older brother Touya, her crush Yukito Tsukishiro, and Keroberos, Sakura heads off to Hong Kong. However, vacation for the Cardcaptor will get cut short. Little does Sakura know, the trip may be connected to her recent, prophetic dreams featuring a mysterious woman and Clow Reed himself, creator of the Clow Cards. ``` General Unique ID : 114734543048864805203319973182172488759 (0x565111B7D597B689FDF142A95E76E437) Complete name : H:\Japanese Animation Movies\[naiyas] Cardcaptor Sakura Movie I 1999 (BD 1080p HEVC - 10 FLAC-AC3 Dual Audio).mkv Format : Matroska Format version : Version 4 File size : 7.47 GiB Duration : 1 h 22 min Overall bit rate mode : Variable Overall bit rate : 13.0 Mb/s Movie name : [naiyas] Cardcaptor Sakura Movie I (BD 1080p HEVC - 10 FLAC-AC3 Dual Audio) Encoded date : UTC 2022-03-01 06:34:57 Writing application : mkvmerge v65.0.0 ('Too Much') 64-bit Writing library : libebml v1.4.2 + libmatroska v1.6.4 Attachments : ARIALUNI.ttf / Balzac-Regular.ttf / ClearfaceGothicLTStd-Roman.otf / Disney_Simple.ttf / DruagaQuorum.ttf / fansubBlock.ttf / Gotham-Medium.ttf Video ID : 1 Format : HEVC Format/Info : High Efficiency Video Coding Format profile : Main 10@L5@Main Codec ID : V_MPEGH/ISO/HEVC Duration : 1 h 21 min Bit rate : 11.2 Mb/s Width : 1 920 pixels Height : 1 080 pixels Display aspect ratio : 16:9 Frame rate mode : Variable Frame rate : 23.976 (24000/1001) FPS Color space : YUV Chroma subsampling : 4:2:0 Bit depth : 10 bits Bits/(Pixel*Frame) : 0.225 Stream size : 6.37 GiB (85%) Title : naiyas HEVC - 10 Writing library : x265 3.5+12+14-106329cbd:[Windows][GCC 10.3.0][64 bit] 10bit Encoding settings : cpuid=1111039 / frame-threads=5 / numa-pools=12 / wpp / no-pmode / no-pme / no-psnr / no-ssim / log-level=2 / input-csp=1 / input-res=1920x1080 / interlace=0 / total-frames=117337 / level-idc=0 / high-tier=1 / uhd-bd=0 / ref=6 / no-allow-non-conformance / no-repeat-headers / annexb / no-aud / no-eob / no-eos / no-hrd / info / hash=0 / no-temporal-layers / no-open-gop / min-keyint=23 / keyint=250 / gop-lookahead=0 / bframes=8 / b-adapt=2 / b-pyramid / bframe-bias=0 / rc-lookahead=60 / lookahead-slices=4 / scenecut=40 / no-hist-scenecut / radl=0 / no-splice / no-intra-refresh / ctu=64 / min-cu-size=8 / rect / no-amp / max-tu-size=32 / tu-inter-depth=1 / tu-intra-depth=1 / limit-tu=0 / rdoq-level=2 / dynamic-rd=0.00 / no-ssim-rd / signhide / no-tskip / nr-intra=0 / nr-inter=0 / no-constrained-intra / no-strong-intra-smoothing / max-merge=3 / limit-refs=3 / no-limit-modes / me=3 / subme=7 / merange=57 / temporal-mvp / no-frame-dup / no-hme / weightp / no-weightb / no-analyze-src-pics / deblock=-1:-1 / no-sao / no-sao-non-deblock / rd=4 / selective-sao=0 / no-early-skip / no-rskip / no-fast-intra / no-tskip-fast / no-cu-lossless / no-b-intra / no-splitrd-skip / rdpenalty=0 / psy-rd=2.00 / psy-rdoq=1.00 / no-rd-refine / no-lossless / cbqpoffs=0 / crqpoffs=0 / rc=crf / crf=18.0 / qcomp=0.60 / qpstep=4 / stats-write=0 / stats-read=0 / ipratio=1.40 / pbratio=1.30 / aq-mode=3 / aq-strength=1.00 / no-cutree / zone-count=0 / no-strict-cbr / qg-size=32 / no-rc-grain / qpmax=69 / qpmin=0 / no-const-vbv / sar=0 / overscan=0 / videoformat=5 / range=0 / colorprim=1 / transfer=1 / colormatrix=1 / chromaloc=0 / display-window=0 / cll=0,0 / min-luma=0 / max-luma=1023 / log2-max-poc-lsb=8 / vui-timing-info / vui-hrd-info / slices=1 / no-opt-qp-pps / no-opt-ref-list-length-pps / no-multi-pass-opt-rps / scenecut-bias=0.05 / hist-threshold=0.03 / no-opt-cu-delta-qp / no-aq-motion / no-hdr10 / no-hdr10-opt / no-dhdr10-opt / no-idr-recovery-sei / analysis-reuse-level=0 / analysis-save-reuse-level=0 / analysis-load-reuse-level=0 / scale-factor=0 / refine-intra=0 / refine-inter=0 / refine-mv=1 / refine-ctu-distortion=0 / no-limit-sao / ctu-info=0 / no-lowpass-dct / refine-analysis-type=0 / copy-pic=1 / max-ausize-factor=1.0 / no-dynamic-refine / no-single-sei / no-hevc-aq / no-svt / no-field / qp-adaptation-range=1.00 / scenecut-aware-qp=0 / conformance-window-right-offset=0 / conformance-window-bottom-offset=0 / decoder-max-rate=0 / no-vbv-live-multi-pass Language : Japanese Default : Yes Forced : No Color range : Limited Color primaries : BT.709 Transfer characteristics : BT.709 Matrix coefficients : BT.709 Audio #1 ID : 2 Format : FLAC Format/Info : Free Lossless Audio Codec Codec ID : A_FLAC Duration : 1 h 21 min Bit rate mode : Variable Bit rate : 1 434 kb/s Channel(s) : 6 channels Channel layout : L R C LFE Ls Rs Sampling rate : 48.0 kHz Frame rate : 11.719 FPS (4096 SPF) Bit depth : 16 bits Compression mode : Lossless Stream size : 837 MiB (11%) Title : Japanese 5.1 FLAC Writing library : libFLAC 1.2.1 (UTC 2007-09-17) Language : Japanese Default : Yes Forced : No Audio #2 ID : 3 Format : AC-3 Format/Info : Audio Coding 3 Commercial name : Dolby Digital Codec ID : A_AC3 Duration : 1 h 22 min Bit rate mode : Constant Bit rate : 448 kb/s Channel(s) : 2 channels Channel layout : L R Sampling rate : 48.0 kHz Frame rate : 31.250 FPS (1536 SPF) Compression mode : Lossy Delay relative to video : 27 ms Stream size : 263 MiB (3%) Title : English 2.0 AC3 Language : English Service kind : Complete Main Default : No Forced : No Text #1 ID : 4 Format : ASS Codec ID : S_TEXT/ASS Codec ID/Info : Advanced Sub Station Alpha Duration : 1 h 20 min Bit rate : 255 b/s Count of elements : 2072 Compression mode : Lossless Stream size : 151 KiB (0%) Title : English Dialogue (Coalgirls) Language : English Default : Yes Forced : No ``` --- ![alt text](https://i.slow.pics/fN9V2YSl.png) ![alt text](https://i.slow.pics/n7pmU2XM.png) ![alt text](https://i.slow.pics/ZP6dGHMl.png) ![alt text](https://i.slow.pics/7ffnfRBw.png)

File list

  • [naiyas] Cardcaptor Sakura Movie I 1999 (BD 1080p HEVC - 10 FLAC-AC3 Dual Audio).mkv (7.5 GiB)
wow i can start watching cardcaptor sakura ? finally ? thanks