キズナアイ Kizuna AI The Last Live “hello, world 2022” (2022.02.26) [YT Live 1080p, UNCUT] [ENG subs+setlist+FLAC]

Category:
Date:
2022-03-01 03:03 UTC
Submitter:
Seeders:
7
Information:
No information.
Leechers:
0
File size:
4.9 GiB
Completed:
181
Info hash:
85cd6e7980bc14bed0345dcd968c3e313f009d79
# **キズナアイ Kizuna AI The Last Live “hello, world 2022” (2022.02.26) [YT Live 1080p, UNCUT] (ENG subs+setlist+FLAC)** [![キズナアイ Kizuna AI The Last Live “hello, world 2022” 2022.02.26 [YT Live 1080p UNCUT] [ENG subs+chaptered+FLAC] ](https://puu.sh/IM7em/abace7d37b.png "キズナアイ Kizuna AI The Last Live “hello, world 2022” 2022.02.26 [YT Live 1080p UNCUT] [ENG subs+chaptered+FLAC] ")](https://puu.sh/IM7dC/245661e3cc.png) --- - Platform: Youtube Live Feb 26th - FULL SHOW, uncut setlist (just cropped the looping-repeated- part at beginning) - English subs available (Kudos to @KamishiroTaishi) - Chaptered setlist. - Titles to Setlist. - Audio track 1 : FLAC - Audio track 2 : original web Stream. --- - Youtube Live source, so don't expect good bitrate, BD/dvd releases still not available. SETLIST 00:43:25.733 : 01. Hello, Morning DJ TORA Remix 00:49:04.000 : 02. Hello World (prod. HiDE Kawada, Toby Jacob) 00:53:16.600 : 03. First Light (prod. SHOW) 00:57:04.000 : 04. Future base (prod. Yunomi) 01:00:10.367 : 05. mirai (prod. ☆Taku Takahashi) 01:06:41.650 : 06. melty world (prod. TeddyLoid) 01:11:33.650 : 07. The Light (W&W ft. Kizuna AI) 01:14:19.000 : 08. never stop my beat (prod. DJ TORA) 01:18:36.567 : 09. RADIO LOVE HIGHWAY (prod. Moe Shop) 01:22:41.000 : 10. over the reality Avec Avec Self Remix 01:27:17.500 : 11. Melty Dreaming BOY, Melting Dreaming GIRL (prod. DE DE MOUSE) 01:34:14.500 : 12. Touch Me (prod. T-SK) 01:37:29.000 : 13. new world (prod. Yunomi) 01:42:05.000 : 14. AIAIAI feat. Yasutaka Nakata 01:47:26.200 : 15. Kizuna AI to AI 01:54:40.700 : 16. Linx (pro. Tetsuya Ito) 01:58:58.500 : 17. Sky High (prod. Yunomi) 02:14:08.000 : 18. Again (prod. TAKU INOUE) 02:18:20.000 : 19. Hello Morning Orchestra Version [![キズナアイ Kizuna AI The Last Live “hello, world 2022” 2022.02.26 [YT Live 1080p UNCUT] [ENG subs+chaptered+FLAC] ](https://puu.sh/IM7en/7d1b3e60f4.png "キズナアイ Kizuna AI The Last Live “hello, world 2022” 2022.02.26 [YT Live 1080p UNCUT] [ENG subs+chaptered+FLAC] ")](https://puu.sh/IM7dz/0144cacfa1.png) [![キズナアイ Kizuna AI The Last Live “hello, world 2022” 2022.02.26 [YT Live 1080p UNCUT] [ENG subs+chaptered+FLAC] ](https://puu.sh/IM7ek/339a117bb2.png "キズナアイ Kizuna AI The Last Live “hello, world 2022” 2022.02.26 [YT Live 1080p UNCUT] [ENG subs+chaptered+FLAC] ")](https://puu.sh/IM7dA/ba32825984.png) [![キズナアイ Kizuna AI The Last Live “hello, world 2022” 2022.02.26 [YT Live 1080p UNCUT] [ENG subs+chaptered+FLAC] ](https://puu.sh/IM7eu/c40e4f6829.png "キズナアイ Kizuna AI The Last Live “hello, world 2022” 2022.02.26 [YT Live 1080p UNCUT] [ENG subs+chaptered+FLAC] ")](https://puu.sh/IM7dG/1caa8eea50.png) [![キズナアイ Kizuna AI The Last Live “hello, world 2022” 2022.02.26 [YT Live 1080p UNCUT] [ENG subs+chaptered+FLAC] ](https://puu.sh/IM7eq/006f679356.png "キズナアイ Kizuna AI The Last Live “hello, world 2022” 2022.02.26 [YT Live 1080p UNCUT] [ENG subs+chaptered+FLAC] ")](https://puu.sh/IM7dB/12fd8233c4.png) [![キズナアイ Kizuna AI The Last Live “hello, world 2022” 2022.02.26 [YT Live 1080p UNCUT] [ENG subs+chaptered+FLAC] ](https://puu.sh/IM7ep/e0634e228d.png "キズナアイ Kizuna AI The Last Live “hello, world 2022” 2022.02.26 [YT Live 1080p UNCUT] [ENG subs+chaptered+FLAC] ")](https://puu.sh/IM7dD/14338b1c6f.png) [![キズナアイ Kizuna AI The Last Live “hello, world 2022” 2022.02.26 [YT Live 1080p UNCUT] [ENG subs+chaptered+FLAC] ](https://puu.sh/IM7et/1ad23e5795.png "キズナアイ Kizuna AI The Last Live “hello, world 2022” 2022.02.26 [YT Live 1080p UNCUT] [ENG subs+chaptered+FLAC] ")](https://puu.sh/IM7dF/0676bd7d3e.png) [![キズナアイ Kizuna AI The Last Live “hello, world 2022” 2022.02.26 [YT Live 1080p UNCUT] [ENG subs+chaptered+FLAC] ](https://puu.sh/IM7ew/94a3271ccc.png "キズナアイ Kizuna AI The Last Live “hello, world 2022” 2022.02.26 [YT Live 1080p UNCUT] [ENG subs+chaptered+FLAC] ")](https://puu.sh/IM7dO/e3cebd6179.png) ``` Tech info: General Unique ID : 202421846211527304832732420480778831071 (0x9849078D6C45EBA0A19C3CF7810B04DF) Format : Matroska Format version : Version 4 File size : 4.87 GiB Duration : 2 h 31 min Overall bit rate mode : Variable Overall bit rate : 4 591 kb/s Encoded date : UTC 2022-03-01 01:23:31 Writing application : mkvmerge v62.0.0 ('Apollo') 64-bit Writing library : libebml v1.4.2 + libmatroska v1.6.4 / Lavf58.29.100 Video ID : 1 Format : AVC Format/Info : Advanced Video Codec Format profile : High@L4 Format settings : CABAC / 1 Ref Frames Format settings, CABAC : Yes Format settings, Reference fra : 1 frame Codec ID : V_MPEG4/ISO/AVC Duration : 2 h 31 min Bit rate : 2 981 kb/s Width : 1 920 pixels Height : 1 080 pixels Display aspect ratio : 16:9 Frame rate mode : Constant Frame rate : 30.000 FPS Color space : YUV Chroma subsampling : 4:2:0 Bit depth : 8 bits Scan type : Progressive Bits/(Pixel*Frame) : 0.048 Stream size : 3.16 GiB (65%) Default : Yes Forced : No Color range : Limited Color primaries : BT.709 Transfer characteristics : BT.709 Matrix coefficients : BT.709 Audio #1 ID : 2 Format : FLAC Format/Info : Free Lossless Audio Codec Codec ID : A_FLAC Duration : 2 h 31 min Bit rate mode : Variable Bit rate : 1 478 kb/s Channel(s) : 2 channels Channel layout : L R Sampling rate : 44.1 kHz Frame rate : 10.767 FPS (4096 SPF) Bit depth : 24 bits Compression mode : Lossless Delay relative to video : 9 ms Stream size : 1.57 GiB (32%) Title : FLAC (StudioOne) Writing library : libFLAC 1.3.2 (UTC 2017-01-01) Language : Japanese Default : Yes Forced : No Audio #2 ID : 3 Format : AAC LC Format/Info : Advanced Audio Codec Low Complexity Codec ID : A_AAC-2 Duration : 2 h 31 min Bit rate : 128 kb/s Channel(s) : 2 channels Channel layout : L R Sampling rate : 44.1 kHz Frame rate : 43.066 FPS (1024 SPF) Compression mode : Lossy Delay relative to video : 9 ms Stream size : 139 MiB (3%) Title : Original webstream Language : Japanese Default : No Forced : No Text ID : 4 Format : ASS Codec ID : S_TEXT/ASS Codec ID/Info : Advanced Sub Station Alpha Duration : 1 h 47 min Bit rate : 23 b/s Count of elements : 336 Compression mode : Lossless Stream size : 18.3 KiB (0%) Title : English CC + setlist (by KamishiroTaishi) Language : English Default : Yes Forced : No ```

File list

This is so good subs and salute to the fandom of VTubers everywhere and Congratulation Kizuna Ai for Graduating.