[naiyas] My Hero Academia - Boku no Hero Academia - (World Heroes Mission) 2021 - Movie 3 (WEBDL 1080p HEVC - 10 E-AC-3).mkv

Category:
Date:
2022-02-25 10:34 UTC
Submitter:
Seeders:
2
Information:
Leechers:
0
File size:
4.8 GiB
Completed:
778
Info hash:
3339180db7208009ad034b97bf6f78bc62f81339
##### Encoder **naiyas** thnx to ***LuCaz*** providing the RAW + (Animorphs) English subtitle (we're giving best quality encode) [**MAL**](https://myanimelist.net/anime/44200/Boku_no_Hero_Academia_the_Movie_3__World_Heroes_Mission) ``` General Unique ID : 307526905282124467048360664249621178775 (0xE75B870E173CA381F639FDE7AE7A6997) Complete name : [naiyas] Boku no Hero Academia - World Heroes Mission (WEBDL 1080p HEVC - 10 E-AC-3).mkv Format : Matroska Format version : Version 4 File size : 4.82 GiB Duration : 1 h 44 min Overall bit rate : 6 609 kb/s Movie name : [naiyas] Boku no Hero Academia - World Heroes Mission (WEBDL 1080p HEVC - 10 E-AC-3) Encoded date : UTC 2022-02-25 09:55:21 Writing application : mkvmerge v65.0.0 ('Too Much') 64-bit Writing library : libebml v1.4.2 + libmatroska v1.6.4 Attachments : HelveticaCdBlk.ttf / Impress BT.ttf / JockeyOne-Regular.ttf / KGNexttoMe-Solid.ttf / Overlock-BoldItalic.ttf / SFCOMICSCRIPT-BOLD.TTF Video ID : 1 Format : HEVC Format/Info : High Efficiency Video Coding Format profile : Main 10@L5@Main Codec ID : V_MPEGH/ISO/HEVC Duration : 1 h 44 min Bit rate : 5 967 kb/s Width : 1 896 pixels Height : 1 064 pixels Display aspect ratio : 16:9 Frame rate mode : Constant Frame rate : 23.976 (24000/1001) FPS Color space : YUV Chroma subsampling : 4:2:0 Bit depth : 10 bits Bits/(Pixel*Frame) : 0.123 Stream size : 4.35 GiB (90%) Title : naiyas HEVC - 10 Writing library : x265 3.5+12+14-106329cbd:[Windows][GCC 10.3.0][64 bit] 10bit Encoding settings : cpuid=1111039 / frame-threads=5 / numa-pools=12 / wpp / no-pmode / no-pme / no-psnr / no-ssim / log-level=2 / input-csp=1 / input-res=1896x1064 / interlace=0 / total-frames=150312 / level-idc=0 / high-tier=1 / uhd-bd=0 / ref=6 / no-allow-non-conformance / no-repeat-headers / annexb / no-aud / no-eob / no-eos / no-hrd / info / hash=0 / no-temporal-layers / no-open-gop / min-keyint=23 / keyint=250 / gop-lookahead=0 / bframes=12 / b-adapt=2 / b-pyramid / bframe-bias=0 / rc-lookahead=60 / lookahead-slices=4 / scenecut=40 / no-hist-scenecut / radl=0 / no-splice / no-intra-refresh / ctu=64 / min-cu-size=8 / rect / no-amp / max-tu-size=32 / tu-inter-depth=1 / tu-intra-depth=1 / limit-tu=0 / rdoq-level=2 / dynamic-rd=0.00 / no-ssim-rd / signhide / no-tskip / nr-intra=0 / nr-inter=0 / no-constrained-intra / no-strong-intra-smoothing / max-merge=3 / limit-refs=3 / no-limit-modes / me=3 / subme=7 / merange=57 / temporal-mvp / no-frame-dup / no-hme / weightp / no-weightb / no-analyze-src-pics / deblock=1:-1 / no-sao / no-sao-non-deblock / rd=4 / selective-sao=0 / no-early-skip / no-rskip / no-fast-intra / no-tskip-fast / no-cu-lossless / no-b-intra / no-splitrd-skip / rdpenalty=0 / psy-rd=2.00 / psy-rdoq=1.00 / no-rd-refine / no-lossless / cbqpoffs=0 / crqpoffs=0 / rc=crf / crf=18.0 / qcomp=0.60 / qpstep=4 / stats-write=0 / stats-read=0 / ipratio=1.40 / pbratio=1.30 / aq-mode=3 / aq-strength=1.00 / no-cutree / zone-count=0 / no-strict-cbr / qg-size=32 / no-rc-grain / qpmax=69 / qpmin=0 / no-const-vbv / sar=0 / overscan=0 / videoformat=5 / range=0 / colorprim=1 / transfer=1 / colormatrix=1 / chromaloc=0 / display-window=0 / cll=0,0 / min-luma=0 / max-luma=1023 / log2-max-poc-lsb=8 / vui-timing-info / vui-hrd-info / slices=1 / no-opt-qp-pps / no-opt-ref-list-length-pps / no-multi-pass-opt-rps / scenecut-bias=0.05 / hist-threshold=0.03 / no-opt-cu-delta-qp / no-aq-motion / no-hdr10 / no-hdr10-opt / no-dhdr10-opt / no-idr-recovery-sei / analysis-reuse-level=0 / analysis-save-reuse-level=0 / analysis-load-reuse-level=0 / scale-factor=0 / refine-intra=0 / refine-inter=0 / refine-mv=1 / refine-ctu-distortion=0 / no-limit-sao / ctu-info=0 / no-lowpass-dct / refine-analysis-type=0 / copy-pic=1 / max-ausize-factor=1.0 / no-dynamic-refine / no-single-sei / no-hevc-aq / no-svt / no-field / qp-adaptation-range=1.00 / scenecut-aware-qp=0 / conformance-window-right-offset=0 / conformance-window-bottom-offset=0 / decoder-max-rate=0 / no-vbv-live-multi-pass Language : Japanese Default : Yes Forced : No Color range : Limited Color primaries : BT.709 Transfer characteristics : BT.709 Matrix coefficients : BT.709 Audio ID : 2 Format : E-AC-3 Format/Info : Enhanced AC-3 Commercial name : Dolby Digital Plus Codec ID : A_EAC3 Duration : 1 h 44 min Bit rate mode : Constant Bit rate : 640 kb/s Channel(s) : 6 channels Channel layout : L R C LFE Ls Rs Sampling rate : 48.0 kHz Frame rate : 31.250 FPS (1536 SPF) Compression mode : Lossy Stream size : 478 MiB (10%) Title : E AC-3 5.1 Japanese Language : Japanese Service kind : Complete Main Default : Yes Forced : No Text ID : 3 Format : ASS Codec ID : S_TEXT/ASS Codec ID/Info : Advanced Sub Station Alpha Duration : 1 h 43 min Bit rate : 191 b/s Count of elements : 1781 Compression mode : Lossless Stream size : 145 KiB (0%) Title : English (Animorphs) Language : English Default : Yes Forced : No ``` --- ![alt text](https://i.slow.pics/ctU0MJW0.png)

File list

  • [naiyas] Boku no Hero Academia - World Heroes Mission (WEBDL 1080p HEVC - 10 E-AC-3).mkv (4.8 GiB)

naiyas (uploader)

User
@friendevil22 **You're Welcome**