[naiyas] Taishou Otome Otogibanashi - Taisho Otome Fairy Tale S01 (BD 1080p HEVC - 10 AAC Multiple Subtitle)

Category:
Date:
2022-02-23 07:16 UTC
Submitter:
Seeders:
1
Information:
Leechers:
0
File size:
11.4 GiB
Completed:
48
Info hash:
686b4c7a87813914fc9033cc47c556ddf2dacc3d
##### **Sources:** [TTGA](https://nyaa.si/view/1485880) + (FUNI subs) **| Subs:** ( English Chihiro + FUNI | Spa-(ES-EU) FUNI | PT-BR FUNI ) ##### **Encoders:** **DarthMorlock** & **naiyas** encoded in (Very Slow) | ***FLAC*** 24bits **-** ***AAC-LC*** 24bits ***@CBR400*** no kHz cut off ``` General Unique ID : 182160108686388698469073654724251242291 (0x890AC2C3BC6D19DD25AEC708397A4F33) Complete name : [naiyas] Taishou Otome Otogibanashi - S01 (BD 1080p HEVC - 10 AAC Multiple Subtitle)\[naiyas] Taishou Otome Otogibanashi - S01E01 (BD 1080p HEVC - 10 AAC Multiple Subtitle).mkv Format : Matroska Format version : Version 4 File size : 718 MiB Duration : 23 min 51 s Overall bit rate : 4 207 kb/s Movie name : [naiyas] Taishou Otome Otogibanashi - Taisho Otome Fairytale S01E01 (BD 1080p HEVC - 10 AAC Multiple Subtitle) - Yuzuki Arrives Encoded date : UTC 2022-02-23 04:04:34 Writing application : mkvmerge v65.0.0 ('Too Much') 64-bit Writing library : libebml v1.4.2 + libmatroska v1.6.4 Cover : Yes Attachments : cover.jpg / antique_book_cover.otf / Awesome Possum Demo.otf / Bright DEMO.otf / Chasing Embers Demo Version.ttf / Cherry Blue.ttf / CronosPro-Semibold.ttf / Delight Candles .ttf / edosz.ttf / Frederick Greatong.otf / JennaSue.ttf / Louis George Cafe.ttf / manga_speak.ttf / MilkyNice-Clean.otf / Regis-Semi Bold.ttf / Rosario-Bold.otf / Rosario-BoldItalic.otf / VanioTrial-Regular.ttf / OpenSans-Semibold.ttf Video ID : 1 Format : HEVC Format/Info : High Efficiency Video Coding Format profile : Main 10@L5@Main Codec ID : V_MPEGH/ISO/HEVC Duration : 23 min 51 s Bit rate : 3 759 kb/s Width : 1 920 pixels Height : 1 080 pixels Display aspect ratio : 16:9 Frame rate mode : Variable Frame rate : 23.976 (24000/1001) FPS Color space : YUV Chroma subsampling : 4:2:0 Bit depth : 10 bits Bits/(Pixel*Frame) : 0.076 Stream size : 641 MiB (89%) Title : naiyas HEVC - 10 Writing library : x265 3.5+12+14-106329cbd:[Windows][GCC 10.3.0][64 bit] 10bit Encoding settings : cpuid=1111039 / frame-threads=5 / numa-pools=12 / wpp / no-pmode / no-pme / no-psnr / no-ssim / log-level=2 / input-csp=1 / input-res=1920x1080 / interlace=0 / total-frames=34320 / level-idc=0 / high-tier=1 / uhd-bd=0 / ref=6 / no-allow-non-conformance / no-repeat-headers / annexb / no-aud / no-eob / no-eos / no-hrd / info / hash=0 / no-temporal-layers / no-open-gop / min-keyint=23 / keyint=250 / gop-lookahead=0 / bframes=12 / b-adapt=2 / b-pyramid / bframe-bias=0 / rc-lookahead=60 / lookahead-slices=4 / scenecut=40 / no-hist-scenecut / radl=0 / no-splice / no-intra-refresh / ctu=64 / min-cu-size=8 / rect / no-amp / max-tu-size=32 / tu-inter-depth=1 / tu-intra-depth=1 / limit-tu=0 / rdoq-level=2 / dynamic-rd=0.00 / no-ssim-rd / signhide / no-tskip / nr-intra=0 / nr-inter=0 / no-constrained-intra / no-strong-intra-smoothing / max-merge=3 / limit-refs=3 / no-limit-modes / me=2 / subme=7 / merange=57 / temporal-mvp / no-frame-dup / no-hme / weightp / no-weightb / no-analyze-src-pics / deblock=1:-1 / no-sao / no-sao-non-deblock / rd=4 / selective-sao=0 / no-early-skip / no-rskip / no-fast-intra / no-tskip-fast / no-cu-lossless / no-b-intra / no-splitrd-skip / rdpenalty=0 / psy-rd=2.00 / psy-rdoq=1.00 / no-rd-refine / no-lossless / cbqpoffs=0 / crqpoffs=0 / rc=crf / crf=18.0 / qcomp=0.60 / qpstep=4 / stats-write=0 / stats-read=0 / ipratio=1.40 / pbratio=1.30 / aq-mode=3 / aq-strength=1.00 / no-cutree / zone-count=0 / no-strict-cbr / qg-size=32 / no-rc-grain / qpmax=69 / qpmin=0 / no-const-vbv / sar=0 / overscan=0 / videoformat=5 / range=0 / colorprim=1 / transfer=1 / colormatrix=1 / chromaloc=0 / display-window=0 / cll=0,0 / min-luma=0 / max-luma=1023 / log2-max-poc-lsb=8 / vui-timing-info / vui-hrd-info / slices=1 / no-opt-qp-pps / no-opt-ref-list-length-pps / no-multi-pass-opt-rps / scenecut-bias=0.05 / hist-threshold=0.03 / no-opt-cu-delta-qp / no-aq-motion / no-hdr10 / no-hdr10-opt / no-dhdr10-opt / no-idr-recovery-sei / analysis-reuse-level=0 / analysis-save-reuse-level=0 / analysis-load-reuse-level=0 / scale-factor=0 / refine-intra=0 / refine-inter=0 / refine-mv=1 / refine-ctu-distortion=0 / no-limit-sao / ctu-info=0 / no-lowpass-dct / refine-analysis-type=0 / copy-pic=1 / max-ausize-factor=1.0 / no-dynamic-refine / no-single-sei / no-hevc-aq / no-svt / no-field / qp-adaptation-range=1.00 / scenecut-aware-qp=0 / conformance-window-right-offset=0 / conformance-window-bottom-offset=0 / decoder-max-rate=0 / no-vbv-live-multi-pass Language : Japanese Default : Yes Forced : No Color range : Limited Color primaries : BT.709 Transfer characteristics : BT.709 Matrix coefficients : BT.709 Audio ID : 2 Format : AAC LC Format/Info : Advanced Audio Codec Low Complexity Codec ID : A_AAC-2 Duration : 23 min 51 s Bit rate : 384 kb/s Channel(s) : 2 channels Channel layout : L R Sampling rate : 48.0 kHz Frame rate : 46.875 FPS (1024 SPF) Compression mode : Lossy Stream size : 64.3 MiB (9%) Title : Japanese (AAC 2.0) Language : Japanese Default : Yes Forced : No Text #1 ID : 3 Format : ASS Codec ID : S_TEXT/ASS Codec ID/Info : Advanced Sub Station Alpha Duration : 23 min 42 s Bit rate : 50.2 kb/s Count of elements : 23834 Compression mode : Lossless Stream size : 8.51 MiB (1%) Title : English (Chihiro) Language : English Default : Yes Forced : No Text #2 ID : 4 Format : ASS Codec ID : S_TEXT/ASS Codec ID/Info : Advanced Sub Station Alpha Duration : 23 min 42 s Bit rate : 82 b/s Count of elements : 288 Compression mode : Lossless Stream size : 14.4 KiB (0%) Title : English (US) - FUNI Language : English Default : No Forced : No Text #3 ID : 5 Format : ASS Codec ID : S_TEXT/ASS Codec ID/Info : Advanced Sub Station Alpha Duration : 23 min 42 s Bit rate : 83 b/s Count of elements : 284 Compression mode : Lossless Stream size : 14.5 KiB (0%) Title : Spanish (Latin American) / Español (América Latina)English (US) - FUNI Language : Spanish Default : No Forced : No Text #4 ID : 6 Format : ASS Codec ID : S_TEXT/ASS Codec ID/Info : Advanced Sub Station Alpha Duration : 23 min 42 s Bit rate : 87 b/s Count of elements : 284 Compression mode : Lossless Stream size : 15.2 KiB (0%) Title : Portuguese (Brazilian) / Português (Brasil)English (US) - FUNI Language : Portuguese Default : No Forced : No Menu 00:00:00.000 : :Prologue 00:02:47.041 : :Opening 00:04:17.047 : :Taisho Otome Fairy Tale 01 00:21:59.978 : :Ending 00:23:29.943 : :Preview ``` Enjoy and don't forget to seed 💌 --- ![alt text](https://i.slow.pics/MNixJcTo.png) ![alt text](https://i.slow.pics/dD52T8AA.png) ![alt text](https://i.slow.pics/W9UDCrHg.png) ![alt text](https://i.slow.pics/7Efz1A90.png) ![alt text](https://i.slow.pics/i3X3YbiZ.png)

File list

  • [naiyas] Taishou Otome Otogibanashi - S01 (BD 1080p HEVC - 10 AAC Multiple Subtitle)
    • FLAC 24bits 48kHz
      • [naiyas] Taishou Otome Otogibanashi - S01E01 (BD 1080p HEVC - 10 AAC Multiple Subtitle).mka (234.7 MiB)
      • [naiyas] Taishou Otome Otogibanashi - S01E02 (BD 1080p HEVC - 10 AAC Multiple Subtitle).mka (238.6 MiB)
      • [naiyas] Taishou Otome Otogibanashi - S01E03 (BD 1080p HEVC - 10 AAC Multiple Subtitle).mka (239.0 MiB)
      • [naiyas] Taishou Otome Otogibanashi - S01E04 (BD 1080p HEVC - 10 AAC Multiple Subtitle).mka (230.8 MiB)
      • [naiyas] Taishou Otome Otogibanashi - S01E05 (BD 1080p HEVC - 10 AAC Multiple Subtitle).mka (240.0 MiB)
      • [naiyas] Taishou Otome Otogibanashi - S01E06 (BD 1080p HEVC - 10 AAC Multiple Subtitle).mka (234.0 MiB)
      • [naiyas] Taishou Otome Otogibanashi - S01E07 (BD 1080p HEVC - 10 AAC Multiple Subtitle).mka (242.5 MiB)
      • [naiyas] Taishou Otome Otogibanashi - S01E08 (BD 1080p HEVC - 10 AAC Multiple Subtitle).mka (240.2 MiB)
      • [naiyas] Taishou Otome Otogibanashi - S01E09 (BD 1080p HEVC - 10 AAC Multiple Subtitle).mka (238.5 MiB)
      • [naiyas] Taishou Otome Otogibanashi - S01E10 (BD 1080p HEVC - 10 AAC Multiple Subtitle).mka (238.3 MiB)
      • [naiyas] Taishou Otome Otogibanashi - S01E11 (BD 1080p HEVC - 10 AAC Multiple Subtitle).mka (248.8 MiB)
      • [naiyas] Taishou Otome Otogibanashi - S01E12 (BD 1080p HEVC - 10 AAC Multiple Subtitle).mka (236.1 MiB)
    • OST (FLAC 24bit 96kHz)
      • 01. 星の界.flac (25.7 MiB)
      • 02. お役に立ちたいのです.flac (18.0 MiB)
      • 03. もう大人ですよ.flac (16.2 MiB)
      • 04. オトメのたしなみ.flac (20.4 MiB)
      • 05. 恋心.flac (23.6 MiB)
      • 06. 珠彦の憂い.flac (24.1 MiB)
      • 07. 寄りそう心.flac (23.2 MiB)
      • 08. 楽しいお出かけ.flac (23.4 MiB)
      • 09. 月夜ノコトリ.flac (38.1 MiB)
      • 10. まあ、はしたない.flac (20.0 MiB)
      • 11. オトメのひととき.flac (16.8 MiB)
      • 12. 人のために.flac (22.2 MiB)
      • 13. 珠子と珠彦.flac (25.0 MiB)
      • 14. 春ですよ.flac (22.2 MiB)
      • 15. 悪い娘.flac (16.0 MiB)
      • 16. 夕月の悲しみ.flac (22.1 MiB)
      • 17. 大切な人.flac (17.4 MiB)
      • 18. 桔梗の花言葉.flac (25.5 MiB)
      • 19. はじめてのくちづけ.flac (23.8 MiB)
      • 20. 別れ.flac (27.2 MiB)
      • 21. 花を欺くが如くかぐわしく.flac (6.5 MiB)
      • 22. ふたりでいっしょに.flac (25.2 MiB)
      • 23. あたたかい味.flac (15.7 MiB)
      • 24. 珠彦と策.flac (19.9 MiB)
      • 25. 恋する気持ちは.flac (22.5 MiB)
      • 26. 月夜ノコトリ [Guitar Ver.].flac (14.8 MiB)
      • 27. やすらぎ.flac (19.3 MiB)
      • 28. ずっとおそばに.flac (21.4 MiB)
      • 29. 夕月とみどり.flac (15.4 MiB)
      • 30. 夢を心に.flac (23.0 MiB)
      • 31. 大震災.flac (24.2 MiB)
      • 32. 珠彦の決意.flac (21.2 MiB)
      • 33. 綾の想い.flac (22.5 MiB)
      • 34. 夕月を求めて.flac (34.2 MiB)
      • 35. もう一度ふたりで.flac (23.2 MiB)
      • 36. おめでとう、ありがとう.flac (26.0 MiB)
      • 37. 戀の歌.flac (58.2 MiB)
      • Cover.jpg (386.6 KiB)
    • [naiyas] Taishou Otome Otogibanashi - S01E01 (BD 1080p HEVC - 10 AAC Multiple Subtitle).mkv (717.9 MiB)
    • [naiyas] Taishou Otome Otogibanashi - S01E02 (BD 1080p HEVC - 10 AAC Multiple Subtitle).mkv (637.7 MiB)
    • [naiyas] Taishou Otome Otogibanashi - S01E03 (BD 1080p HEVC - 10 AAC Multiple Subtitle).mkv (630.2 MiB)
    • [naiyas] Taishou Otome Otogibanashi - S01E04 (BD 1080p HEVC - 10 AAC Multiple Subtitle).mkv (634.1 MiB)
    • [naiyas] Taishou Otome Otogibanashi - S01E05 (BD 1080p HEVC - 10 AAC Multiple Subtitle).mkv (652.5 MiB)
    • [naiyas] Taishou Otome Otogibanashi - S01E06 (BD 1080p HEVC - 10 AAC Multiple Subtitle).mkv (647.9 MiB)
    • [naiyas] Taishou Otome Otogibanashi - S01E07 (BD 1080p HEVC - 10 AAC Multiple Subtitle).mkv (629.0 MiB)
    • [naiyas] Taishou Otome Otogibanashi - S01E08 (BD 1080p HEVC - 10 AAC Multiple Subtitle).mkv (650.8 MiB)
    • [naiyas] Taishou Otome Otogibanashi - S01E09 (BD 1080p HEVC - 10 AAC Multiple Subtitle).mkv (634.2 MiB)
    • [naiyas] Taishou Otome Otogibanashi - S01E10 (BD 1080p HEVC - 10 AAC Multiple Subtitle).mkv (645.1 MiB)
    • [naiyas] Taishou Otome Otogibanashi - S01E11 (BD 1080p HEVC - 10 AAC Multiple Subtitle).mkv (687.8 MiB)
    • [naiyas] Taishou Otome Otogibanashi - S01E12 (BD 1080p HEVC - 10 AAC Multiple Subtitle).mkv (703.2 MiB)
    • [naiyas] Taishou Otome Otogibanashi - S01ED (BD 1080p HEVC - 10 FLAC).mkv (48.0 MiB)
    • [naiyas] Taishou Otome Otogibanashi - S01OP (BD 1080p HEVC - 10 FLAC).mkv (83.7 MiB)
![alt text](https://i.imgur.com/C1XUWom.png)

naiyas (uploader)

User
@Kamiyan93 that's the problem of MPC-BE (incorrent rendering) while in MPV no problem at all ![alt text](https://i.slow.pics/dD52T8AA.png) Dam i ddn't notice that, so high recommend **MPV**

naiyas (uploader)

User
screenshot updated
Seems there is a compatibility issue with font mime types, as most of them are muxed in with the "newer" types "font/ttf" and "font/otf". You can choose to enable legacy mimetypes ("application/x-truetype-font"/"application/vnd.ms-opentype") when muxing in MKVToolnix (they changed it in v58 to the newer formats and legacy types are not enabled by default). Software like FFmpeg also doesn't seem to support the newer formats, so it's quite a pain in the ass if I need to remux them.

naiyas (uploader)

User
@ToishY thnx for informing