[naiyas] Arifureta Shokugyou de Sekai Saikyou - Arifureta From Commonplace to World's Strongest S2 [S02E01 - S02E06] (WEBDL 1080p HEVC - 10 AAC Multiple Subtitle)

Category:
Date:
2022-02-22 12:18 UTC
Submitter:
Seeders:
0
Information:
Leechers:
1
File size:
6.5 GiB
Completed:
48
Info hash:
c0a1196c57cff96d9bc515049f8bcc5750daf929
##### **Source & subs quality checker | FUNI WEBDL** **ripper OASC from dkb team + NanDesuKa ( audio + asian subs )** ##### **Subtitles:** En, Spa-(ES-EU), PT-BR FUNI | Id (Indonesian), th (Thai), vi (Vietnamese) ##### **Encoder:** **DarthMorlock & naiyas Overall quality much better than FUNI encodeded in Very Slow** ***( Degrain + Deband + AA )*** ##### **Replaced with B-Global audio | Chapters included** (fixed some framerate issue in certain episodes) ``` General Unique ID : 10866055288729667571804685075531368017 (0x82CB9E3614678F04079370DB3070651) Complete name : [naiyas] Arifureta Shokugyou de Sekai Saikyou - S02E01 (WEBDL 1080p HEVC - 10 AAC Multiple Subtitle).mkv Format : Matroska Format version : Version 4 File size : 1.08 GiB Duration : 23 min 40 s Overall bit rate : 6 522 kb/s Movie name : [naiyas] Arifureta Shokugyou de Sekai Saikyou - S02E01 (WEBDL 1080p HEVC - 10 AAC Multiple Subtitle) Encoded date : UTC 2022-02-22 11:47:40 Writing application : mkvmerge v65.0.0 ('Too Much') 64-bit Writing library : libebml v1.4.2 + libmatroska v1.6.4 Attachments : OpenSans-Semibold.ttf / NotoSans-Medium.ttf Video ID : 1 Format : HEVC Format/Info : High Efficiency Video Coding Format profile : Main 10@L5@Main Codec ID : V_MPEGH/ISO/HEVC Duration : 23 min 40 s Bit rate : 6 201 kb/s Width : 1 920 pixels Height : 1 080 pixels Display aspect ratio : 16:9 Frame rate mode : Constant Frame rate : 23.976 (24000/1001) FPS Color space : YUV Chroma subsampling : 4:2:0 Bit depth : 10 bits Bits/(Pixel*Frame) : 0.125 Stream size : 1.03 GiB (95%) Title : naiyas HEVC - 10 Writing library : x265 3.5+12+14-106329cbd:[Windows][GCC 10.3.0][64 bit] 10bit Encoding settings : cpuid=1111039 / frame-threads=5 / numa-pools=24 / wpp / no-pmode / no-pme / no-psnr / no-ssim / log-level=2 / input-csp=1 / input-res=1920x1080 / interlace=0 / total-frames=34215 / level-idc=0 / high-tier=1 / uhd-bd=0 / ref=6 / no-allow-non-conformance / no-repeat-headers / annexb / no-aud / no-eob / no-eos / no-hrd / info / hash=0 / no-temporal-layers / no-open-gop / min-keyint=23 / keyint=250 / gop-lookahead=0 / bframes=12 / b-adapt=2 / b-pyramid / bframe-bias=0 / rc-lookahead=40 / lookahead-slices=0 / scenecut=40 / no-hist-scenecut / radl=0 / no-splice / no-intra-refresh / ctu=64 / min-cu-size=8 / rect / amp / max-tu-size=32 / tu-inter-depth=3 / tu-intra-depth=3 / limit-tu=0 / rdoq-level=2 / dynamic-rd=0.00 / no-ssim-rd / signhide / no-tskip / nr-intra=0 / nr-inter=0 / no-constrained-intra / strong-intra-smoothing / max-merge=5 / limit-refs=0 / no-limit-modes / me=2 / subme=7 / merange=57 / temporal-mvp / no-frame-dup / no-hme / weightp / weightb / no-analyze-src-pics / deblock=1:-1 / sao / no-sao-non-deblock / rd=6 / selective-sao=4 / no-early-skip / no-rskip / no-fast-intra / no-tskip-fast / no-cu-lossless / b-intra / no-splitrd-skip / rdpenalty=0 / psy-rd=2.00 / psy-rdoq=1.00 / no-rd-refine / no-lossless / cbqpoffs=0 / crqpoffs=0 / rc=crf / crf=18.0 / qcomp=0.60 / qpstep=4 / stats-write=0 / stats-read=0 / ipratio=1.40 / pbratio=1.30 / aq-mode=3 / aq-strength=1.00 / no-cutree / zone-count=0 / no-strict-cbr / qg-size=32 / no-rc-grain / qpmax=69 / qpmin=0 / no-const-vbv / sar=0 / overscan=0 / videoformat=5 / range=0 / colorprim=1 / transfer=1 / colormatrix=1 / chromaloc=0 / display-window=0 / cll=0,0 / min-luma=0 / max-luma=1023 / log2-max-poc-lsb=8 / vui-timing-info / vui-hrd-info / slices=1 / no-opt-qp-pps / no-opt-ref-list-length-pps / no-multi-pass-opt-rps / scenecut-bias=0.05 / hist-threshold=0.03 / no-opt-cu-delta-qp / no-aq-motion / no-hdr10 / no-hdr10-opt / no-dhdr10-opt / no-idr-recovery-sei / analysis-reuse-level=0 / analysis-save-reuse-level=0 / analysis-load-reuse-level=0 / scale-factor=0 / refine-intra=0 / refine-inter=0 / refine-mv=1 / refine-ctu-distortion=0 / no-limit-sao / ctu-info=0 / no-lowpass-dct / refine-analysis-type=0 / copy-pic=1 / max-ausize-factor=1.0 / no-dynamic-refine / no-single-sei / no-hevc-aq / no-svt / no-field / qp-adaptation-range=1.00 / scenecut-aware-qp=0 / conformance-window-right-offset=0 / conformance-window-bottom-offset=0 / decoder-max-rate=0 / no-vbv-live-multi-pass Language : Japanese Default : Yes Forced : No Color range : Limited Color primaries : BT.709 Transfer characteristics : BT.709 Matrix coefficients : BT.709 Audio ID : 2 Format : AAC LC Format/Info : Advanced Audio Codec Low Complexity Codec ID : A_AAC-2 Duration : 23 min 40 s Bit rate : 315 kb/s Channel(s) : 2 channels Channel layout : L R Sampling rate : 48.0 kHz Frame rate : 46.875 FPS (1024 SPF) Compression mode : Lossy Stream size : 53.3 MiB (5%) Title : Japanese (B-GLOBAL) Language : Japanese Default : Yes Forced : No ``` --- ![alt text](https://i.slow.pics/expXjuoK.png) ![alt text](https://i.slow.pics/R3OyjVYn.png) ![alt text](https://i.slow.pics/3UDonuiu.png) ![alt text](https://i.slow.pics/h1Xq7QGA.png)

File list

  • [naiyas] Arifureta Shokugyou de Sekai Saikyou - (WEBDL 1080p HEVC - 10 AAC Multiple Subtitle)
    • [naiyas] Arifureta Shokugyou de Sekai Saikyou - S02E01 (WEBDL 1080p HEVC - 10 AAC Multiple Subtitle).mkv (1.1 GiB)
    • [naiyas] Arifureta Shokugyou de Sekai Saikyou - S02E02 (WEBDL 1080p HEVC - 10 AAC Multiple Subtitle).mkv (1.1 GiB)
    • [naiyas] Arifureta Shokugyou de Sekai Saikyou - S02E03 (WEBDL 1080p HEVC - 10 AAC Multiple Subtitle).mkv (1.2 GiB)
    • [naiyas] Arifureta Shokugyou de Sekai Saikyou - S02E04 (WEBDL 1080p HEVC - 10 AAC Multiple Subtitle).mkv (1.1 GiB)
    • [naiyas] Arifureta Shokugyou de Sekai Saikyou - S02E05 (WEBDL 1080p HEVC - 10 AAC Multiple Subtitle).mkv (1.1 GiB)
    • [naiyas] Arifureta Shokugyou de Sekai Saikyou - S02E06 (WEBDL 1080p HEVC - 10 AAC Multiple Subtitle).mkv (1005.0 MiB)
You're not re-encoding that trash Funi video, right?

naiyas (uploader)

User
@Kamiyan93 for **Arifureta From Commonplace to World's Strongest S2** cuz we ddn't have any alternative source aside from FUNI so yeah it's from FUNI, I guaranteed video viewing experience absolutely much better from the source
Checked one ep and does look better than Funi. Good thing you are not making minis anymore. Keep it up.
Any chance we can get this re-seeded? ; -; :D

naiyas (uploader)

User
@TheOneDemon it's seeding