[naiyas] Fate Grand Order - Final Singularity Grand Temple of Time Solomon - (WEBDL1080p HEVC - 10 AAC Mult-Subs).mkv

Category:
Date:
2022-02-21 10:16 UTC
Submitter:
Seeders:
2
Information:
Leechers:
0
File size:
4.0 GiB
Completed:
96
Info hash:
329a1e509db6763575daa9c2e3000fa065bdaad3
##### **Source & subs quality checker:| CR WEBDL** **ripper OASC from dkb team (w/d FUNIMATION)** ##### **Encoder: naiyas** ( so far this is best release in nyaa gonna ever find ) **Subs** ( English CR + FUNI | Spa-LA / ES ( CR + FUNI) | PT-BR ( CR ) ) ``` General Unique ID : 123958756641827117214409530918707645055 (0x5D41968F97BA3E19CD0BE7D915D3CA7F) Complete name : [naiyas] Fate Grand Order - Final Singularity Grand Temple of Time Solomon - (WEBDL1080p HEVC - 10 AAC Mult-Subs).mkv Format : Matroska Format version : Version 4 File size : 4.00 GiB Duration : 1 h 34 min Overall bit rate : 6 074 kb/s Movie name : [naiyas] Fate Grand Order - Final Singularity Grand Temple of Time Solomon - (WEBDL1080p HEVC - 10 AAC Mult-Subs) Encoded date : UTC 2022-02-21 09:32:05 Writing application : mkvmerge v65.0.0 ('Too Much') 64-bit Writing library : libebml v1.4.2 + libmatroska v1.6.4 Attachments : arial.ttf / times.ttf / trebuc.ttf / NotoSans-Medium.ttf Video ID : 1 Format : HEVC Format/Info : High Efficiency Video Coding Format profile : Main 10@L4@Main Codec ID : V_MPEGH/ISO/HEVC Duration : 1 h 34 min Bit rate : 5 813 kb/s Width : 1 920 pixels Height : 1 080 pixels Display aspect ratio : 16:9 Frame rate mode : Constant Frame rate : 23.976 (24000/1001) FPS Color space : YUV Chroma subsampling : 4:2:0 (Type 2) Bit depth : 10 bits Bits/(Pixel*Frame) : 0.117 Stream size : 3.83 GiB (96%) Title : naiyas HEVC - 10 Writing library : x265 3.5+12+14-106329cbd:[Windows][GCC 10.3.0][64 bit] 10bit Encoding settings : cpuid=1111039 / frame-threads=3 / numa-pools=12 / wpp / no-pmode / no-pme / no-psnr / no-ssim / log-level=2 / input-csp=1 / input-res=1920x1080 / interlace=0 / total-frames=135600 / level-idc=0 / high-tier=1 / uhd-bd=0 / ref=4 / no-allow-non-conformance / no-repeat-headers / annexb / no-aud / no-eob / no-eos / no-hrd / info / hash=0 / no-temporal-layers / no-open-gop / min-keyint=23 / keyint=250 / gop-lookahead=0 / bframes=12 / b-adapt=2 / b-pyramid / bframe-bias=0 / rc-lookahead=60 / lookahead-slices=4 / scenecut=40 / no-hist-scenecut / radl=0 / no-splice / no-intra-refresh / ctu=64 / min-cu-size=8 / rect / no-amp / max-tu-size=32 / tu-inter-depth=1 / tu-intra-depth=1 / limit-tu=0 / rdoq-level=2 / dynamic-rd=0.00 / no-ssim-rd / signhide / no-tskip / nr-intra=0 / nr-inter=0 / no-constrained-intra / no-strong-intra-smoothing / max-merge=3 / limit-refs=3 / no-limit-modes / me=3 / subme=3 / merange=57 / temporal-mvp / no-frame-dup / no-hme / weightp / no-weightb / no-analyze-src-pics / deblock=-1:-1 / no-sao / no-sao-non-deblock / rd=4 / selective-sao=0 / no-early-skip / rskip / no-fast-intra / no-tskip-fast / no-cu-lossless / no-b-intra / no-splitrd-skip / rdpenalty=0 / psy-rd=2.00 / psy-rdoq=1.00 / no-rd-refine / no-lossless / cbqpoffs=0 / crqpoffs=0 / rc=crf / crf=18.0 / qcomp=0.60 / qpstep=4 / stats-write=0 / stats-read=0 / ipratio=1.40 / pbratio=1.30 / aq-mode=3 / aq-strength=1.00 / no-cutree / zone-count=0 / no-strict-cbr / qg-size=32 / no-rc-grain / qpmax=69 / qpmin=0 / no-const-vbv / sar=0 / overscan=0 / videoformat=5 / range=0 / colorprim=1 / transfer=1 / colormatrix=1 / chromaloc=1 / chromaloc-top=2 / chromaloc-bottom=2 / display-window=0 / cll=0,0 / min-luma=0 / max-luma=1023 / log2-max-poc-lsb=8 / vui-timing-info / vui-hrd-info / slices=1 / no-opt-qp-pps / no-opt-ref-list-length-pps / no-multi-pass-opt-rps / scenecut-bias=0.05 / hist-threshold=0.03 / no-opt-cu-delta-qp / no-aq-motion / no-hdr10 / no-hdr10-opt / no-dhdr10-opt / no-idr-recovery-sei / analysis-reuse-level=0 / analysis-save-reuse-level=0 / analysis-load-reuse-level=0 / scale-factor=0 / refine-intra=0 / refine-inter=0 / refine-mv=1 / refine-ctu-distortion=0 / no-limit-sao / ctu-info=0 / no-lowpass-dct / refine-analysis-type=0 / copy-pic=1 / max-ausize-factor=1.0 / no-dynamic-refine / no-single-sei / no-hevc-aq / no-svt / no-field / qp-adaptation-range=1.00 / scenecut-aware-qp=0 / conformance-window-right-offset=0 / conformance-window-bottom-offset=0 / decoder-max-rate=0 / no-vbv-live-multi-pass Language : Japanese Default : Yes Forced : No Color range : Limited Color primaries : BT.709 Transfer characteristics : BT.709 Matrix coefficients : BT.709 Audio ID : 2 Format : AAC LC Format/Info : Advanced Audio Codec Low Complexity Codec ID : A_AAC-2 Duration : 1 h 34 min Bit rate : 256 kb/s Channel(s) : 2 channels Channel layout : L R Sampling rate : 48.0 kHz Frame rate : 46.875 FPS (1024 SPF) Compression mode : Lossy Delay relative to video : 1 s 501 ms Stream size : 173 MiB (4%) Title : Japanese (FUNIMATION) Language : Japanese Default : Yes Forced : No ``` ##### So enjoy, and also don't forget to seed ❤ ![alt text](https://i.slow.pics/BJu1Tfdu.png) ![alt text](https://i.slow.pics/YhK5zNvI.png) ![alt text](https://i.slow.pics/1KQiaOcQ.png) ![alt text](https://i.slow.pics/fy1fcju5.png) ![alt text](https://i.slow.pics/3GjVpND4.png)

File list

  • [naiyas] Fate Grand Order - Final Singularity Grand Temple of Time Solomon - (WEBDL1080p HEVC - 10 AAC Mult-Subs).mkv (4.0 GiB)

naiyas (uploader)

User
@Kamiyan93 [MAL](https://myanimelist.net/anime/41497/Fate_Grand_Order__Shuukyoku_Tokuiten_-_Kani_Jikan_Shinden_Solomon)