Dragon Ball Z (Saban Ocean Dub) Pioneer Singles Remux [vanner64]

Category:
Date:
2022-02-17 22:43 UTC
Submitter:
Seeders:
4
Information:
No information.
Leechers:
1
File size:
57.1 GiB
Completed:
79
Info hash:
293f8881da597efdec9f2e927f0b264a2919d43b
![alt text](https://i.slow.pics/woLVvydP.png "DBZ Pioneer Single Title") Remux of all Dragon Ball Z original Ocean/Saban dub from the Singles DVDs. All 53 episodes dubbed by the original crew are included here. Potential Questions Q: Why does the video look weird with lines? A: This video is interlaced, make sure your player is deinterlacing (Press D on MPV) Q: Will you upload the rest of the FUNi Singles? A: No, I see no purpose since after episode 53 here, it switches to the uncut version with the current Funimation cast. Recommend the Seed of Might Merge / Dragon Box for those episodes. https://nyaa.si/view/1331089 Q: What's the difference between this and the Rock the Dragon set? How about the Madman Singles? A: Slightly different video quality, although it's hard to say which one is better. This audio quality is superior at 348kb/s AC-3 compared to Rock the Dragon 192kb/s AC-3. However, certain lines in the Singles have been changed due to censorship, notably mentions of death. In my opinion this doesn't change the viewer's understanding of the show. You can check out Rock the Dragon here https://nyaa.si/view/1431953 Images compared here: https://slow.pics/c/inrGdM3Z Q: Where is the OP, ED, or NEP for each episode? A: The way the DVDs are made, you get one opening, three or four full episodes, one ED, and one NEP per disc. This means most episodes don't have the OP or ED. Those have been collected in the OP ED NEP folder. Q: Seed please! A: If you're reading this, I promise you I am seeding it, regardless of what the seeders number says. MediaInfo: ```Format : Matroska Format version : Version 4 Overall bit rate mode : Variable Overall bit rate : 6 979 kb/s Encoded date : UTC 2021-07-09 10:39:46 Writing application : mkvmerge v58.0.0 ('Supper's Ready') 64-bit Writing library : libebml v1.4.2 + libmatroska v1.6.4 Video ID : 1 ID in the original source medium : 224 (0xE0) Format : MPEG Video Format version : Version 2 Format profile : Main@Main Format settings : CustomMatrix / BVOP Format settings, BVOP : Yes Format settings, Matrix : Custom Format settings, GOP : Variable Codec ID : V_MPEG2 Codec ID/Info : MPEG 1 or 2 Video Duration : 20 min 43 s Bit rate mode : Variable Bit rate : 6 591 kb/s Width : 720 pixels Height : 480 pixels Display aspect ratio : 4:3 Frame rate mode : Variable Frame rate : 24.944 FPS Original frame rate : 29.970 (30000/1001) FPS Color space : YUV Chroma subsampling : 4:2:0 Bit depth : 8 bits Compression mode : Lossy Bits/(Pixel*Frame) : 0.765 Time code of first frame : 01:02:56:01 Time code source : Group of pictures header GOP, Open/Closed : Open Stream size : 977 MiB (94%) Language : English Default : No Forced : No Original source medium : DVD-Video Audio ID : 2 ID in the original source medium : 189 (0xBD)128 (0x80) Format : AC-3 Format/Info : Audio Coding 3 Commercial name : Dolby Digital Codec ID : A_AC3 Duration : 20 min 43 s Bit rate mode : Constant Bit rate : 384 kb/s Channel(s) : 2 channels Channel layout : L R Sampling rate : 48.0 kHz Frame rate : 31.250 FPS (1536 SPF) Compression mode : Lossy Delay relative to video : 78 ms Stream size : 56.9 MiB (6%) Title : Stereo Language : English Service kind : Complete Main Default : Yes Forced : No Original source medium : DVD-Video

File list

  • Dragon Ball Z (Saban Ocean Dub) Pioneer Singles Remux [vanner64]
    • OP ED NEP
      • DBZ 04 05 06 NEP D1.mkv (67.3 MiB)
      • DBZ 07 NEP D2.mkv (18.2 MiB)
      • DBZ 10 NEP D3.mkv (21.3 MiB)
      • DBZ 13 NEP D4.mkv (18.1 MiB)
      • DBZ 16 NEP D5.mkv (24.2 MiB)
      • DBZ 19 NEP D6.mkv (17.9 MiB)
      • DBZ 22 NEP D7.mkv (13.3 MiB)
      • DBZ 25 NEP D8.mkv (15.8 MiB)
      • DBZ 28 NEP D9.mkv (15.0 MiB)
      • DBZ 31 NEP D10.mkv (12.2 MiB)
      • DBZ 34 NEP D11.mkv (18.4 MiB)
      • DBZ 37 NEP D12.mkv (26.9 MiB)
      • DBZ 40 NEP D13.mkv (35.5 MiB)
      • DBZ 43 NEP D14.mkv (32.5 MiB)
      • DBZ 46 NEP D15.mkv (33.4 MiB)
      • DBZ 49 NEP D16.mkv (26.5 MiB)
      • DBZS ED.mkv (24.3 MiB)
      • DBZS Extended OP D1.mkv (122.6 MiB)
      • DBZS OP.mkv (60.5 MiB)
    • DBZ 01 Arrival.mkv (1.0 GiB)
    • DBZ 02 The World's Strongest Team.mkv (920.0 MiB)
    • DBZ 03 Gohan's Hidden Powers.mkv (973.9 MiB)
    • DBZ 04 Goku's Unusual Journey.mkv (954.8 MiB)
    • DBZ 05 Gohan's Metamorphosis.mkv (1.1 GiB)
    • DBZ 06 Gohan Makes a Friend.mkv (1.1 GiB)
    • DBZ 07 Trouble on Arlia.mkv (1.1 GiB)
    • DBZ 08 Home for Infinite Losers.mkv (982.3 MiB)
    • DBZ 09 Princess Snake's Hospitality.mkv (953.3 MiB)
    • DBZ 10 Escape from Piccolo.mkv (1.2 GiB)
    • DBZ 11 Showdown in the Past.mkv (1.1 GiB)
    • DBZ 12 The End of Snake Way.mkv (1.1 GiB)
    • DBZ 13 A Fight Against Gravity... Catch Bubbles!.mkv (1.0 GiB)
    • DBZ 14 The Legend of the Saiyans.mkv (1.2 GiB)
    • DBZ 15 A Black Day for Planet Earth.mkv (1.2 GiB)
    • DBZ 16 The Battle Begins... Goku Where are You.mkv (1.1 GiB)
    • DBZ 17 The Saibamen Strike.mkv (1.1 GiB)
    • DBZ 18 Nappa... the Invincible.mkv (1.1 GiB)
    • DBZ 19 Tien Goes All Out!!.mkv (1.1 GiB)
    • DBZ 20 Time's Up!.mkv (1.1 GiB)
    • DBZ 21 The Return of Goku.mkv (1.0 GiB)
    • DBZ 22 Goku Strikes Back.mkv (1.0 GiB)
    • DBZ 23 Goku vs. Vegeta... A Saiyan Duel!.mkv (1.1 GiB)
    • DBZ 24 Vegeta... Saiyan Style!.mkv (1.1 GiB)
    • DBZ 25 Stop Vegeta Now!.mkv (1.1 GiB)
    • DBZ 26 The Battle Ends.mkv (1.1 GiB)
    • DBZ 27 A New Goal... Namek.mkv (1.1 GiB)
    • DBZ 28 Journey to Namek.mkv (1.1 GiB)
    • DBZ 29 Friends or Foes.mkv (1.0 GiB)
    • DBZ 30 Hunt for a Dragon Ball.mkv (1014.7 MiB)
    • DBZ 31 Who's Who!.mkv (991.6 MiB)
    • DBZ 32 Touchdown on Namek.mkv (1.2 GiB)
    • DBZ 33 Face-off on Namek.mkv (1.1 GiB)
    • DBZ 34 The Ruthless Frieza.mkv (1.1 GiB)
    • DBZ 35 The Nameks Versus Frieza.mkv (1.0 GiB)
    • DBZ 36 Escape from Dodoria.mkv (1020.4 MiB)
    • DBZ 37 Secrets Revealed.mkv (1006.9 MiB)
    • DBZ 38 A Collision Course.mkv (1.1 GiB)
    • DBZ 39 Stay Away from Frieza.mkv (1.1 GiB)
    • DBZ 40 Zarbon Transformed.mkv (1.1 GiB)
    • DBZ 41 The Eldest Namek.mkv (1.1 GiB)
    • DBZ 42 Get Vegeta!.mkv (1.1 GiB)
    • DBZ 43 Vegeta Revived.mkv (1.1 GiB)
    • DBZ 44 A Heavy Burden.mkv (1.1 GiB)
    • DBZ 45 Immortality Denied.mkv (1.1 GiB)
    • DBZ 46 Big Trouble for Bulma.mkv (1.1 GiB)
    • DBZ 47 Scramble for the Dragon Balls!.mkv (1.1 GiB)
    • DBZ 48 Arrival of the Ginyu Force.mkv (1.1 GiB)
    • DBZ 49 Elite Fighters of the Universe... The Ginyu Force.mkv (1.1 GiB)
    • DBZ 50 Time Tricks and Body Binds.mkv (1.1 GiB)
    • DBZ 51 No Refuge from Recoome.mkv (1.0 GiB)
    • DBZ 52 Enter Goku.mkv (1.0 GiB)
    • DBZ 53 Goku... Super Saiyan.mkv (1.0 GiB)
Nice. This reminded me that Ocean Kai is _still_ unreleased. 😑 If it ever does get released, we then have the Westwood dub for the Majin Boo arc.
@Impakt Yes, but those Goku vs Freeza episodes will still be missing. Btw, nice seeing you again. I remember you inviting me to ADC way back in 2006.
ocean kai needs to stay dead