[Members only] [Hololive EN - Gawr Gura] [Valentines day 2022 💟] soft talking + candy eating [2022-02-14] - 5eGGOmRxd7U

Category:
Date:
2022-02-16 11:33 UTC
Submitter:
Seeders:
9
Information:
Leechers:
1
File size:
278.0 MiB
Completed:
375
Info hash:
19d5324d64a00ab0a343a3a8001c927d8807c5d2
![Thumbnail](https://i.ibb.co/5jtmycR/2022-02-14-Members-only-Hololive-EN-Gawr-Gura-Valentines-day-2022-soft-talking-candy-eating-5e-GGOm.webp) Format : MPEG-4 >Format profile : Base Media Codec ID : isom (isom/iso2/mp41) File size : 220 MiB Duration : 1 h 0 min Overall bit rate mode : Variable Overall bit rate : 508 kb/s Writing application : Lavf59.4.102 Cover : Yes Video >ID : 1 Format : vp09 Codec ID : vp09 Duration : 1 h 0 min Bit rate : 390 kb/s Width : 1 920 pixels Height : 1 080 pixels Display aspect ratio : 16:9 Frame rate mode : Variable Frame rate : 60.000 FPS Minimum frame rate : 58.824 FPS Maximum frame rate : 62.500 FPS Color space : YUV Bits/(Pixel*Frame) : 0.003 Stream size : 169 MiB (77%) Language : English Color range : Limited Color primaries : BT.709 Transfer characteristics : BT.709 Matrix coefficients : BT.709 Audio >ID : 2 Format : Opus Codec ID : Opus Duration : 1 h 0 min Duration_FirstFrame : 1 ms Bit rate mode : Variable Bit rate : 104 kb/s Compression mode : Lossy Stream size : 45.1 MiB (20%) Language : English Default : Yes Alternate group : 1

File list

  • [2022-02-14] [Members only] [Hololive EN - Gawr Gura] [Valentines day 2022] soft talking + candy eating - 5eGGOmRxd7U
    • [2022-02-14] [Members only] [Hololive EN - Gawr Gura] [Valentines day 2022] soft talking + candy eating - 5eGGOmRxd7U.description (165 Bytes)
    • [2022-02-14] [Members only] [Hololive EN - Gawr Gura] [Valentines day 2022] soft talking + candy eating - 5eGGOmRxd7U.live_chat.json (57.8 MiB)
    • [2022-02-14] [Members only] [Hololive EN - Gawr Gura] [Valentines day 2022] soft talking + candy eating - 5eGGOmRxd7U.mp4 (220.1 MiB)
    • [2022-02-14] [Members only] [Hololive EN - Gawr Gura] [Valentines day 2022] soft talking + candy eating - 5eGGOmRxd7U.webp (92.0 KiB)
I SHALL PARTAKE IN THIS WONDERFUL FOOD
it's broken, no sound!! ;(((((((((

Shugami (uploader)

User
@Aspera01 Im using media player classic and it runs normally try update ur codec
@Shugami - Hello! Thanks for replying! I'm not that well-versed in the insides of media players and such, I use PotPlayer, maybe you can tell me how to update it? Or should I just update the "media player classic" (I'm fine with both)

Shugami (uploader)

User
@Aspera01 Just go to their main website and dl the latest Klite mega codec build.