[2022-02-14] [Members only] [Hololive JP - Sakamata Chloe] 【囁き】メイド沙花叉がセリフ囁きASMR!恥ずかしぬ…………… - sBSF64t-Rps

Category:
Date:
2022-02-14 16:15 UTC
Submitter:
Seeders:
9
Information:
Leechers:
1
File size:
372.6 MiB
Completed:
760
Info hash:
3e23b0be06d43cbabab7691db5812218786ffe97
![Thumbnail](https://pbs.twimg.com/media/FLjXOmBUcAQS8qv?format=jpg&name=large) Format : MPEG-4 >Format profile : Base Media Codec ID : isom (isom/iso2/mp41) File size : 281 MiB Duration : 1 h 35 min Overall bit rate mode : Variable Overall bit rate : 409 kb/s Writing application : Lavf59.4.102 Cover : Yes Video >ID : 1 Format : vp09 Codec ID : vp09 Duration : 1 h 35 min Bit rate : 277 kb/s Width : 1 920 pixels Height : 1 080 pixels Display aspect ratio : 16:9 Frame rate mode : Variable Frame rate : 60.000 FPS Minimum frame rate : 58.824 FPS Maximum frame rate : 62.500 FPS Bits/(Pixel*Frame) : 0.002 Stream size : 190 MiB (68%) Language : English Audio >ID : 2 Format : Opus Codec ID : Opus Duration : 1 h 35 min Duration_FirstFrame : 1 ms Bit rate mode : Variable Bit rate : 119 kb/s Compression mode : Lossy Stream size : 81.6 MiB (29%) Language : English Default : Yes Alternate group : 1

File list

  • [2022-02-14] [Members only] [Hololive JP - Sakamata Chloe] 【囁き】メイド沙花叉がセリフ囁きASMR!恥ずかしぬ…………… - sBSF64t-Rps
    • [2022-02-14] [Members only] [Hololive JP - Sakamata Chloe] 【囁き】メイド沙花叉がセリフ囁きASMR!恥ずかしぬ…………… - sBSF64t-Rps.description (2.0 KiB)
    • [2022-02-14] [Members only] [Hololive JP - Sakamata Chloe] 【囁き】メイド沙花叉がセリフ囁きASMR!恥ずかしぬ…………… - sBSF64t-Rps.live_chat.json (91.9 MiB)
    • [2022-02-14] [Members only] [Hololive JP - Sakamata Chloe] 【囁き】メイド沙花叉がセリフ囁きASMR!恥ずかしぬ…………… - sBSF64t-Rps.mp4 (280.6 MiB)
    • [2022-02-14] [Members only] [Hololive JP - Sakamata Chloe] 【囁き】メイド沙花叉がセリフ囁きASMR!恥ずかしぬ…………… - sBSF64t-Rps.webp (98.2 KiB)