[Members only] [Hololive EN - Gawr Gura] [nintendo direct] im sick lets watch together [2022-02-09] - _RQT9Gkv67g

Category:
Date:
2022-02-10 04:45 UTC
Submitter:
Seeders:
3
Information:
Leechers:
0
File size:
413.4 MiB
Completed:
129
Info hash:
038b61ea21e413a179d99b44a0a7954d79e0e4be
![Thumbnail](https://i.ibb.co/8z21YB7/2022-02-09-Members-only-Hololive-EN-Gawr-Gura-nintendo-direct-im-sick-lets-watch-together-RQT9-Gkv67.webp) Format : MPEG-4 >Format profile : Base Media Codec ID : isom (isom/iso2/mp41) File size : 345 MiB Duration : 1 h 35 min Overall bit rate mode : Variable Overall bit rate : 505 kb/s Writing application : Lavf59.4.102 Cover : Yes Video >ID : 1 Format : vp09 Codec ID : vp09 Duration : 1 h 35 min Bit rate : 348 kb/s Width : 1 920 pixels Height : 1 080 pixels Display aspect ratio : 16:9 Frame rate mode : Variable Frame rate : 60.000 FPS Minimum frame rate : 58.824 FPS Maximum frame rate : 62.500 FPS Color space : YUV Bits/(Pixel*Frame) : 0.003 Stream size : 238 MiB (69%) Language : English Color range : Limited Color primaries : BT.709 Transfer characteristics : BT.709 Matrix coefficients : BT.709 Audio >ID : 2 Format : Opus Codec ID : Opus Duration : 1 h 35 min Duration_FirstFrame : 1 ms Bit rate mode : Variable Bit rate : 145 kb/s Compression mode : Lossy Stream size : 98.8 MiB (29%) Language : English Default : Yes Alternate group : 1

File list

  • [2022-02-09] [Members only] [Hololive EN - Gawr Gura] [nintendo direct] im sick lets watch together - _RQT9Gkv67g
    • [2022-02-09] [Members only] [Hololive EN - Gawr Gura] [nintendo direct] im sick lets watch together - _RQT9Gkv67g.description (111 Bytes)
    • [2022-02-09] [Members only] [Hololive EN - Gawr Gura] [nintendo direct] im sick lets watch together - _RQT9Gkv67g.live_chat.json (68.8 MiB)
    • [2022-02-09] [Members only] [Hololive EN - Gawr Gura] [nintendo direct] im sick lets watch together - _RQT9Gkv67g.mp4 (344.6 MiB)
    • [2022-02-09] [Members only] [Hololive EN - Gawr Gura] [nintendo direct] im sick lets watch together - _RQT9Gkv67g.webp (23.2 KiB)
Oh yeah you get to hear all about Gura's pee in this episode. It's pretty funny actually but I think she is embarrassed about it after.