The.Slime.Diaries.S01.1080p.BluRay.10-Bit.FLAC2.0.x265-YURASUKA (Tensura Nikki)

Category:
Date:
2022-02-05 05:54 UTC
Submitter:
Seeders:
13
Information:
Leechers:
0
File size:
10.6 GiB
Completed:
506
Info hash:
79b743a30707f83069da6d3f10ca90861e54556b
The Slime Diaries / Tensura Nikki Season 1 (2021) This is better than the main the show. A/V Source: [TTGA BD Remux](https://nyaa.si/view/1427629) (JP) Subtitles Source: [TTGA](https://nyaa.si/view/1427629) (Moe+EMBER) [Encode Comparison](https://slow.pics/c/xXLCRdzy) ``` Complete name : The.Slime.Diaries.S01E05.1080p.BluRay.10-Bit.FLAC2.0.x265-YURASUKA.mkv Format : Matroska Format version : Version 4 File size : 1.08 GiB Duration : 23 min 42 s Overall bit rate mode : Variable Overall bit rate : 6 521 kb/s Movie name : The Slime Diaries - S01E05 - YURASUKA Encoded date : UTC 2022-02-04 16:08:19 Writing application : mkvmerge v64.0.0 ('Willows') 64-bit Writing library : libebml v1.4.2 + libmatroska v1.6.3 Cover : Yes Attachments : cover.jpg / J001 A-OTF 武蔵野 Std.ttf / KgTenThousandReasonsAlt-BOrl.ttf / Mercurius-Medium.otf / NotJustGroovy-enmp.ttf / Paprika-Regular.ttf / quadrat-regulareclipse.ttf / SNsanafonkaku.ttf / @@ta_fuga_fude01-En_0.TTF / 123Marker.TTF / ANDYB.TTF / arial.ttf / arialbd.ttf / cantoria-mt-std-semibold.otf / CTMERCURIUSSTD-MEDIUM.OTF / DomCasualStd-Bold.otf / edosz.ttf / FROMWHEREYOUARE.TTF / GandhiSans-Bold.otf / GandhiSans-BoldItalic.otf / Green Eggs Bold v3.0.ttf / ichigo69smells.TTF Video ID : 1 Format : HEVC Format/Info : High Efficiency Video Coding Format profile : Main 10@L5@Main Codec ID : V_MPEGH/ISO/HEVC Duration : 23 min 42 s Bit rate : 5 608 kb/s Width : 1 920 pixels Height : 1 080 pixels Display aspect ratio : 16:9 Frame rate mode : Constant Frame rate : 23.976 (24000/1001) FPS Color space : YUV Chroma subsampling : 4:2:0 Bit depth : 10 bits Bits/(Pixel*Frame) : 0.113 Stream size : 951 MiB (86%) Title : YURASUKA 1080p x265 Writing library : x265 3.5:[Linux][GCC 10.2.0][64 bit] 10bit Encoding settings : cpuid=1111039 / frame-threads=4 / numa-pools=24 / wpp / no-pmode / no-pme / no-psnr / no-ssim / log-level=2 / input-csp=1 / input-res=1920x1080 / interlace=0 / total-frames=0 / level-idc=0 / high-tier=1 / uhd-bd=0 / ref=6 / no-allow-non-conformance / no-repeat-headers / annexb / no-aud / no-hrd / info / hash=0 / no-temporal-layers / open-gop / min-keyint=1 / keyint=360 / gop-lookahead=0 / bframes=16 / b-adapt=2 / b-pyramid / bframe-bias=0 / rc-lookahead=72 / lookahead-slices=4 / scenecut=40 / hist-scenecut=0 / radl=0 / no-splice / no-intra-refresh / ctu=32 / min-cu-size=8 / rect / amp / max-tu-size=32 / tu-inter-depth=4 / tu-intra-depth=4 / limit-tu=0 / rdoq-level=2 / dynamic-rd=4.00 / no-ssim-rd / signhide / tskip / nr-intra=0 / nr-inter=0 / no-constrained-intra / strong-intra-smoothing / max-merge=3 / limit-refs=3 / limit-modes / me=3 / subme=4 / merange=57 / temporal-mvp / no-frame-dup / no-hme / weightp / weightb / no-analyze-src-pics / deblock=0:0 / no-sao / no-sao-non-deblock / rd=4 / selective-sao=0 / no-early-skip / rskip / no-fast-intra / no-tskip-fast / no-cu-lossless / b-intra / no-splitrd-skip / rdpenalty=0 / psy-rd=1.60 / psy-rdoq=2.00 / no-rd-refine / no-lossless / cbqpoffs=0 / crqpoffs=0 / rc=crf / crf=16.0 / qcomp=0.65 / qpstep=4 / stats-write=0 / stats-read=0 / vbv-maxrate=25000 / vbv-bufsize=25000 / vbv-init=0.9 / min-vbv-fullness=50.0 / max-vbv-fullness=80.0 / crf-max=0.0 / crf-min=0.0 / ipratio=1.40 / pbratio=1.30 / aq-mode=3 / aq-strength=0.85 / cutree / zone-count=0 / no-strict-cbr / qg-size=32 / no-rc-grain / qpmax=69 / qpmin=0 / no-const-vbv / sar=0 / overscan=0 / videoformat=5 / range=0 / colorprim=1 / transfer=1 / colormatrix=1 / chromaloc=0 / display-window=0 / cll=0,0 / min-luma=0 / max-luma=1023 / log2-max-poc-lsb=8 / vui-timing-info / vui-hrd-info / slices=1 / no-opt-qp-pps / no-opt-ref-list-length-pps / no-multi-pass-opt-rps / scenecut-bias=0.05 / hist-threshold=0.03 / no-opt-cu-delta-qp / no-aq-motion / no-hdr10 / no-hdr10-opt / no-dhdr10-opt / no-idr-recovery-sei / analysis-reuse-level=0 / analysis-save-reuse-level=0 / analysis-load-reuse-level=0 / scale-factor=0 / refine-intra=0 / refine-inter=0 / refine-mv=1 / refine-ctu-distortion=0 / no-limit-sao / ctu-info=0 / no-lowpass-dct / refine-analysis-type=0 / copy-pic=1 / max-ausize-factor=1.0 / no-dynamic-refine / no-single-sei / no-hevc-aq / no-svt / no-field / qp-adaptation-range=1.00 / scenecut-aware-qp=0conformance-window-offsets / right=0 / bottom=0 / decoder-max-rate=0 / no-vbv-live-multi-pass Language : Japanese Default : Yes Forced : No Color range : Limited Color primaries : BT.709 Transfer characteristics : BT.709 Matrix coefficients : BT.709 Audio ID : 2 Format : FLAC Format/Info : Free Lossless Audio Codec Codec ID : A_FLAC Duration : 23 min 41 s Bit rate mode : Variable Bit rate : 721 kb/s Channel(s) : 2 channels Channel layout : L R Sampling rate : 48.0 kHz Frame rate : 10.417 FPS (4608 SPF) Bit depth : 16 bits Compression mode : Lossless Stream size : 122 MiB (11%) Title : Japanese FLAC 2.0 Writing library : Lavf58.76.100 Language : Japanese Default : Yes Forced : No Text ID : 3 Format : ASS Codec ID : S_TEXT/ASS Codec ID/Info : Advanced Sub Station Alpha Duration : 23 min 38 s Bit rate : 12.7 kb/s Count of elements : 12334 Compression mode : Lossless Stream size : 2.14 MiB (0%) Title : English Subtitles (Moe+EMBER) Language : English Default : Yes Forced : No Menu 00:00:00.000 : en:Intro 00:01:50.026 : en:OP 00:03:19.991 : en:Part A 00:10:50.942 : en:Part B 00:21:02.928 : en:ED 00:22:32.976 : en:Extra 00:23:29.950 : en:PV ``` Dead end for a sucker that’s a sucker like me. 私のようなカモの行き止まりです。

File list

  • The.Slime.Diaries.S01.1080p.BluRay.10-Bit.FLAC2.0.x265-YURASUKA
    • The.Slime.Diaries.S01E01.1080p.BluRay.10-Bit.FLAC2.0.x265-YURASUKA.mkv (884.0 MiB)
    • The.Slime.Diaries.S01E02.1080p.BluRay.10-Bit.FLAC2.0.x265-YURASUKA.mkv (897.3 MiB)
    • The.Slime.Diaries.S01E03.1080p.BluRay.10-Bit.FLAC2.0.x265-YURASUKA.mkv (903.2 MiB)
    • The.Slime.Diaries.S01E04.1080p.BluRay.10-Bit.FLAC2.0.x265-YURASUKA.mkv (872.1 MiB)
    • The.Slime.Diaries.S01E05.1080p.BluRay.10-Bit.FLAC2.0.x265-YURASUKA.mkv (1.1 GiB)
    • The.Slime.Diaries.S01E06.1080p.BluRay.10-Bit.FLAC2.0.x265-YURASUKA.mkv (997.1 MiB)
    • The.Slime.Diaries.S01E07.1080p.BluRay.10-Bit.FLAC2.0.x265-YURASUKA.mkv (883.5 MiB)
    • The.Slime.Diaries.S01E08.1080p.BluRay.10-Bit.FLAC2.0.x265-YURASUKA.mkv (993.0 MiB)
    • The.Slime.Diaries.S01E09.1080p.BluRay.10-Bit.FLAC2.0.x265-YURASUKA.mkv (782.9 MiB)
    • The.Slime.Diaries.S01E10.1080p.BluRay.10-Bit.FLAC2.0.x265-YURASUKA.mkv (828.1 MiB)
    • The.Slime.Diaries.S01E11.1080p.BluRay.10-Bit.FLAC2.0.x265-YURASUKA.mkv (828.0 MiB)
    • The.Slime.Diaries.S01E12.1080p.BluRay.10-Bit.FLAC2.0.x265-YURASUKA.mkv (870.6 MiB)
"This is better than the main the show" Agreed. Could watch this all day
Episode 5 subtitles are out of sync. First four episodes aren't consistent with the rest of the episodes in terms of OP... and the OP KFX is broken for episodes 6-12. Example: https://puu.sh/IHlQQ/82600d8541.png vs. https://puu.sh/IHlPJ/dba9c3b650.png Honestly may be easiest/best to just use the styling from the first few episodes and toss them onto the others for consistency and to get rid of the broken kfx.

Yurasuka (uploader)

User
All I did was use the subs from the BDRemux so they must have also been wrong on TTGA's release. I will take a look at it.
[@ChaoXide](https://nyaa.si/view/1486842#com-2) > First four episodes aren’t consistent with the rest of the episodes in terms of OP… Yeah, I was bit lazy with the styling for the first 4 eps and then It changed when I had to typeset so many signs for ep 5. So I thought "why not update the op and ed styling too" for ep 5. > and the OP KFX is broken for episodes 6-12 Unfortunately, I couldn't QC what [EMBER] did with their releases but it looks like simply slapping my OP/ED to their encodes didn't work well... :^) > Honestly may be easiest/best to just use the styling from the first few episodes and toss them onto the others for consistency and to get rid of the broken kfx. I kinda agree with this tbh, so there's that... :^)
Actually the biggest problem with episode 5 is that the audio is not synced with the video.