[DBPH] Dragon Ball Z GMA Tagalog Redub/Creative Productions Dub EP.17 " Ang Siyudad na Walang Kinabukasan! Ang Mahabang Daan Patungo sa Inaasam na Tagumpay! " ( City of No Tomorrow! The Long Road to Victory! )

Category:
Date:
2022-01-28 12:40 UTC
Submitter:
Seeders:
1
Information:
No information.
Leechers:
0
File size:
1.9 GiB
Completed:
6
Info hash:
015a092f53908876748eac623cb2e9c115843c96
General Unique ID : 223226648787186862154218035408838089079 (0xA7EFE383B518CD0A9D12ECFD17285977) Complete name : C:\Users\moren\Videos\Dragon Ball Z Tagalog Redub HD\[DBPH] Dragon Ball Z Episode 17 Tagalog Dubbed-RPN9 (Creative Productions Dub).mkv Format : Matroska Format version : Version 4 File size : 1.91 GiB Duration : 24 min 39 s Overall bit rate mode : Variable Overall bit rate : 11.1 Mb/s Encoded date : UTC 2022-01-28 11:13:35 Writing application : mkvmerge v63.0.0 ('Everything') 32-bit Writing library : libebml v1.4.2 + libmatroska v1.6.4 Cover : Yes Attachments : cover.jpg / Funimitation.ttf / FunimitationBoldItalic.ttf Video ID : 1 Format : MPEG Video Format version : Version 2 Format profile : Main@Main Format settings : CustomMatrix / BVOP Format settings, BVOP : Yes Format settings, Matrix : Custom Format settings, GOP : Variable Codec ID : V_MPEG2 Codec ID/Info : MPEG 1 or 2 Video Duration : 24 min 39 s Bit rate mode : Variable Bit rate : 7 006 kb/s Maximum bit rate : 9 800 kb/s Width : 720 pixels Height : 480 pixels Display aspect ratio : 4:3 Frame rate mode : Variable Frame rate : 23.976 FPS Standard : Component Color space : YUV Chroma subsampling : 4:2:0 Bit depth : 8 bits Scan type : Progressive Scan order : 2:3 Pulldown Compression mode : Lossy Bits/(Pixel*Frame) : 0.845 Time code of first frame : 01:30:05:00 Time code source : Group of pictures header GOP, Open/Closed : Open GOP, Open/Closed of first frame : Closed Stream size : 1.21 GiB (63%) Default : No Forced : No Color primaries : BT.601 NTSC Transfer characteristics : BT.601 Matrix coefficients : BT.601 Audio #1 ID : 2 Format : FLAC Format/Info : Free Lossless Audio Codec Codec ID : A_FLAC Duration : 24 min 39 s Bit rate mode : Variable Bit rate : 1 699 kb/s Channel(s) : 2 channels Channel layout : L R Sampling rate : 96.0 kHz Frame rate : 23.438 FPS (4096 SPF) Bit depth : 24 bits Compression mode : Lossless Stream size : 300 MiB (15%) Title : Tagalog Dubbed Writing library : libFLAC 20080709 (UTC 2008-07-09) Language : fil Default : Yes Forced : No Audio #2 ID : 3 Format : FLAC Format/Info : Free Lossless Audio Codec Codec ID : A_FLAC Duration : 24 min 39 s Bit rate mode : Variable Bit rate : 2 150 kb/s Channel(s) : 2 channels Channel layout : L R Sampling rate : 96.0 kHz Frame rate : 23.438 FPS (4096 SPF) Bit depth : 24 bits Compression mode : Lossless Stream size : 379 MiB (19%) Title : Creative Productions English Dubbed Writing library : libFLAC 20080709 (UTC 2008-07-09) Language : English Default : Yes Forced : No Audio #3 ID : 4 Format : AC-3 Format/Info : Audio Coding 3 Commercial name : Dolby Digital Codec ID : A_AC3 Duration : 24 min 39 s Bit rate mode : Constant Bit rate : 256 kb/s Channel(s) : 1 channel Channel layout : C Sampling rate : 48.0 kHz Frame rate : 31.250 FPS (1536 SPF) Compression mode : Lossy Stream size : 45.1 MiB (2%) Title : Original Broadcast Audio Language : Japanese Service kind : Complete Main Default : Yes Forced : No Text ID : 5 Format : ASS Codec ID : S_TEXT/ASS Codec ID/Info : Advanced Sub Station Alpha Duration : 24 min 25 s Bit rate : 133 b/s Count of elements : 277 Compression mode : Lossless Stream size : 23.8 KiB (0%) Language : English Default : Yes Forced : No Menu 00:00:00.000 : en:Chapter 01 00:01:49.109 : en:Chapter 02 00:11:44.370 : en:Chapter 03 00:22:32.684 : en:Chapter 04 00:24:08.780 : en:Chapter 05

File list

  • [DBPH] Dragon Ball Z Episode 17 Tagalog Dubbed-RPN9 (Creative Productions Dub).mkv (1.9 GiB)