[naiyas-weeklies] Attack on Titan - Shingeki no Kyojin (The Final Season Part 2) - S04E18[77] - (WEBDL 1080p HEVC - 10 AAC Multiple Subtitle)_rework.mkv

Category:
Date:
2022-01-27 10:12 UTC
Submitter:
Seeders:
4
Information:
Leechers:
0
File size:
940.5 MiB
Completed:
643
Info hash:
e71493e1d4cb63b36a7479a0250f94c0601192a0
##### **Source & subs quality checker | CR WEBDL** **ripper OASC from dkb team** ##### **Subtitles:** **En(DameDesuYo), Spa-LA, Spa-(ES-EU), Fre, PT-BR, Ara, Ita. Ger, Rus** ##### **Encoder:** **DarthMorlock Overall quality much better than CR encodeded in Very Slow** ***( filters used Deband + AA + Dehalo )*** ##### **Replaced with FUNIMATION audio | remuxer naiyas** ##### **Chapters included** ``` General Unique ID : 261812469463833343752392949215971453267 (0xC4F73F5A8CDA84B5466319A397DF2953) Complete name : [naiyas] Shingeki no Kyojin (The Final Season Part 2) - S04E18[77] - (WEBDL 1080p HEVC - 10 AAC Multiple Subtitle).mkv Format : Matroska Format version : Version 4 File size : 940 MiB Duration : 23 min 55 s Overall bit rate : 5 497 kb/s Movie name : [naiyas] Attack on Titan - Shingeki no Kyojin (The Final Season Part 2) - S04E18[77] - (WEBDL 1080p HEVC - 10 AAC Multiple Subtitle) Encoded date : UTC 2022-01-27 09:28:09 Writing application : mkvmerge v61.0.0 ('So') 64-bit Writing library : libebml v1.4.2 + libmatroska v1.6.4 Attachments : OpenSans-Semibold.ttf / AGARAMONDPRO-REGULAR.OTF / ANGIE-BOLD.TTF / ANGIE-BOLDITALIC.TTF / BSOD.TTF / CLEARFACESSIBOLD.TTF / KINESISSTD-BLACKITALIC.OTF / CLEARFACESSIBOLD.TTF / DAYROMAN.TTF / AdobeArabic-Bold.otf / arial.ttf / comic.ttf / cour.ttf / georgia.ttf / tahoma.ttf / times.ttf / trebuc.ttf / verdana.ttf Video ID : 1 Format : HEVC Format/Info : High Efficiency Video Coding Format profile : Main 10@L4@Main Codec ID : V_MPEGH/ISO/HEVC Duration : 23 min 55 s Bit rate : 5 181 kb/s Width : 1 920 pixels Height : 1 080 pixels Display aspect ratio : 16:9 Frame rate mode : Constant Frame rate : 23.976 (24000/1001) FPS Color space : YUV Chroma subsampling : 4:2:0 Bit depth : 10 bits Bits/(Pixel*Frame) : 0.104 Stream size : 886 MiB (94%) Title : naiyas HEVC - 10 Writing library : x265 3.5+10+13-7c9bc0cb14:[Windows][GCC 10.2.0][64 bit] 10bit Encoding settings : cpuid=1111039 / frame-threads=5 / numa-pools=24 / wpp / no-pmode / no-pme / no-psnr / no-ssim / log-level=2 / input-csp=1 / input-res=1920x1080 / interlace=0 / total-frames=34406 / level-idc=0 / high-tier=1 / uhd-bd=0 / ref=5 / no-allow-non-conformance / no-repeat-headers / annexb / no-aud / no-eob / no-eos / no-hrd / info / hash=0 / no-temporal-layers / no-open-gop / min-keyint=23 / keyint=250 / gop-lookahead=0 / bframes=10 / b-adapt=2 / b-pyramid / bframe-bias=0 / rc-lookahead=40 / lookahead-slices=0 / scenecut=40 / hist-scenecut=0 / radl=0 / no-splice / no-intra-refresh / ctu=64 / min-cu-size=8 / rect / amp / max-tu-size=32 / tu-inter-depth=3 / tu-intra-depth=3 / limit-tu=0 / rdoq-level=2 / dynamic-rd=0.00 / no-ssim-rd / signhide / no-tskip / nr-intra=0 / nr-inter=0 / no-constrained-intra / no-strong-intra-smoothing / max-merge=5 / limit-refs=0 / no-limit-modes / me=2 / subme=7 / merange=57 / temporal-mvp / no-frame-dup / no-hme / weightp / weightb / no-analyze-src-pics / deblock=1:-1 / no-sao / no-sao-non-deblock / rd=6 / selective-sao=0 / no-early-skip / no-rskip / no-fast-intra / no-tskip-fast / no-cu-lossless / b-intra / no-splitrd-skip / rdpenalty=0 / psy-rd=2.00 / psy-rdoq=1.00 / no-rd-refine / no-lossless / cbqpoffs=0 / crqpoffs=0 / rc=crf / crf=18.0 / qcomp=0.60 / qpstep=4 / stats-write=0 / stats-read=0 / ipratio=1.40 / pbratio=1.30 / aq-mode=3 / aq-strength=1.00 / no-cutree / zone-count=0 / no-strict-cbr / qg-size=32 / no-rc-grain / qpmax=69 / qpmin=0 / no-const-vbv / sar=0 / overscan=0 / videoformat=5 / range=0 / colorprim=1 / transfer=1 / colormatrix=1 / chromaloc=0 / display-window=0 / cll=0,0 / min-luma=0 / max-luma=1023 / log2-max-poc-lsb=8 / vui-timing-info / vui-hrd-info / slices=1 / no-opt-qp-pps / no-opt-ref-list-length-pps / no-multi-pass-opt-rps / scenecut-bias=0.05 / hist-threshold=0.03 / no-opt-cu-delta-qp / no-aq-motion / no-hdr10 / no-hdr10-opt / no-dhdr10-opt / no-idr-recovery-sei / analysis-reuse-level=0 / analysis-save-reuse-level=0 / analysis-load-reuse-level=0 / scale-factor=0 / refine-intra=0 / refine-inter=0 / refine-mv=1 / refine-ctu-distortion=0 / no-limit-sao / ctu-info=0 / no-lowpass-dct / refine-analysis-type=0 / copy-pic=1 / max-ausize-factor=1.0 / no-dynamic-refine / no-single-sei / no-hevc-aq / no-svt / no-field / qp-adaptation-range=1.00 / scenecut-aware-qp=0 / conformance-window-right-offset=0 / conformance-window-bottom-offset=0 / decoder-max-rate=0 / no-vbv-live-multi-pass Language : Japanese Default : Yes Forced : No Color range : Limited Color primaries : BT.709 Transfer characteristics : BT.709 Matrix coefficients : BT.709 Audio ID : 2 Format : AAC LC Format/Info : Advanced Audio Codec Low Complexity Codec ID : A_AAC-2 Duration : 23 min 54 s Bit rate : 256 kb/s Channel(s) : 2 channels Channel layout : L R Sampling rate : 48.0 kHz Frame rate : 46.875 FPS (1024 SPF) Compression mode : Lossy Delay relative to video : 504 ms Stream size : 43.8 MiB (5%) Title : Japanese (FUNIMATION) Language : Japanese Default : Yes Forced : No ``` --- ![alt text](https://i.slow.pics/MQ7pWCov.png)

File list

  • [naiyas] Shingeki no Kyojin (The Final Season Part 2) - S04E18[77] - (WEBDL 1080p HEVC - 10 AAC Multiple Subtitle).mkv (940.5 MiB)