[WEB] Carp Reborn - Season 1 [1080P][HEVC][x265][10-bit][HFR][AAC]

Category:
Date:
2022-01-23 14:40 UTC
Submitter:
Seeders:
2
File size:
25.3 GiB
Completed:
31
Info hash:
eaf2c736f05e8c65d363f5e8926835ed76cb94fb
Carp Reborn First Dragons Yuan Long 元龙 Full Metal Dragon Synopsis: Sagara Sousuke gets isekai’d during a HALO training session due to a space-time anomaly caused by the (TA)TAROS incident , and ends in a journey in a cultivation world , and encounters Hatsune Miku and waifus along the way. https://manhuaus.com/manga/yuan-long/ Definitive version of this show. General Unique ID : 184871147633556169326831651361335106682 (0x8B14E34DF17A346E36E4D9A4F6515C7A) Complete name : F:\Carp Reborn\Season 1\Episode - 01.mkv Format : Matroska Format version : Version 4 / Version 2 File size : 1.58 GiB Duration : 19 min 31 s Overall bit rate : 11.6 Mb/s Encoded date : UTC 2022-01-22 14:32:34 Writing application : mkvmerge v62.0.0 ('Apollo') 64-bit Writing library : libebml v1.4.2 + libmatroska v1.6.4 Video ID : 1 Format : HEVC Format/Info : High Efficiency Video Coding Format profile : Main 10@L4.1@Main Codec ID : V_MPEGH/ISO/HEVC Duration : 19 min 31 s Bit rate : 11.3 Mb/s Width : 1 920 pixels Height : 1 080 pixels Display aspect ratio : 16:9 Frame rate mode : Constant Frame rate : 50.000 FPS Color space : YUV Chroma subsampling : 4:2:0 Bit depth : 10 bits Bits/(Pixel*Frame) : 0.109 Stream size : 1.53 GiB (97%) Writing library : x265 3.5+19-8003e4382:[Windows][GCC 11.2.0][64 bit] 10bit Encoding settings : cpuid=1111039 / frame-threads=5 / numa-pools=32 / wpp / no-pmode / no-pme / no-psnr / no-ssim / log-level=2 / input-csp=1 / input-res=1920x1080 / interlace=0 / total-frames=0 / level-idc=0 / high-tier=1 / uhd-bd=0 / ref=3 / no-allow-non-conformance / no-repeat-headers / annexb / no-aud / no-eob / no-eos / no-hrd / info / hash=0 / no-temporal-layers / open-gop / min-keyint=25 / keyint=250 / gop-lookahead=0 / bframes=4 / b-adapt=2 / b-pyramid / bframe-bias=0 / rc-lookahead=20 / lookahead-slices=6 / scenecut=40 / no-hist-scenecut / radl=0 / no-splice / no-intra-refresh / ctu=64 / min-cu-size=8 / no-rect / no-amp / max-tu-size=32 / tu-inter-depth=1 / tu-intra-depth=1 / limit-tu=0 / rdoq-level=0 / dynamic-rd=0.00 / no-ssim-rd / signhide / no-tskip / nr-intra=0 / nr-inter=0 / no-constrained-intra / strong-intra-smoothing / max-merge=3 / limit-refs=1 / no-limit-modes / me=1 / subme=2 / merange=57 / temporal-mvp / no-frame-dup / no-hme / weightp / no-weightb / no-analyze-src-pics / deblock=0:0 / sao / no-sao-non-deblock / rd=3 / selective-sao=4 / early-skip / rskip / no-fast-intra / no-tskip-fast / no-cu-lossless / b-intra / no-splitrd-skip / rdpenalty=0 / psy-rd=2.00 / psy-rdoq=0.00 / no-rd-refine / no-lossless / cbqpoffs=0 / crqpoffs=0 / rc=crf / crf=12.0 / qcomp=0.60 / qpstep=4 / stats-write=0 / stats-read=0 / ipratio=1.40 / pbratio=1.30 / aq-mode=2 / aq-strength=1.00 / cutree / zone-count=0 / no-strict-cbr / qg-size=32 / no-rc-grain / qpmax=69 / qpmin=0 / no-const-vbv / sar=0 / overscan=0 / videoformat=5 / range=0 / colorprim=2 / transfer=2 / colormatrix=2 / chromaloc=0 / display-window=0 / cll=0,0 / min-luma=0 / max-luma=1023 / log2-max-poc-lsb=8 / vui-timing-info / vui-hrd-info / slices=1 / no-opt-qp-pps / no-opt-ref-list-length-pps / no-multi-pass-opt-rps / scenecut-bias=0.05 / hist-threshold=0.03 / no-opt-cu-delta-qp / no-aq-motion / no-hdr10 / no-hdr10-opt / no-dhdr10-opt / no-idr-recovery-sei / analysis-reuse-level=0 / analysis-save-reuse-level=0 / analysis-load-reuse-level=0 / scale-factor=0 / refine-intra=0 / refine-inter=0 / refine-mv=1 / refine-ctu-distortion=0 / no-limit-sao / ctu-info=0 / no-lowpass-dct / refine-analysis-type=0 / copy-pic=1 / max-ausize-factor=1.0 / no-dynamic-refine / no-single-sei / no-hevc-aq / no-svt / no-field / qp-adaptation-range=1.00 / scenecut-aware-qp=0conformance-window-offsets / right=0 / bottom=0 / decoder-max-rate=0 / no-vbv-live-multi-pass Language : Chinese Default : Yes Forced : No Color range : Limited Audio ID : 2 Format : AAC LC Format/Info : Advanced Audio Codec Low Complexity Codec ID : A_AAC-2 Duration : 19 min 31 s Bit rate : 314 kb/s Channel(s) : 2 channels Channel layout : L R Sampling rate : 48.0 kHz Frame rate : 46.875 FPS (1024 SPF) Compression mode : Lossy Delay relative to video : -14 ms Stream size : 43.9 MiB (3%) Language : Chinese Default : Yes Forced : No Text ID : 3 Format : UTF-8 Codec ID : S_TEXT/UTF8 Codec ID/Info : UTF-8 Plain Text Duration : 18 min 49 s Bit rate : 60 b/s Count of elements : 265 Stream size : 8.33 KiB (0%) Language : English Default : Yes Forced : No

File list

  • Carp Reborn - Season 1
    • Episode - 01.mkv (1.6 GiB)
    • Episode - 02.mkv (1.4 GiB)
    • Episode - 03.mkv (1.6 GiB)
    • Episode - 04.mkv (1.3 GiB)
    • Episode - 05.mkv (1.5 GiB)
    • Episode - 06.mkv (1.4 GiB)
    • Episode - 07.mkv (1.4 GiB)
    • Episode - 08.mkv (1.5 GiB)
    • Episode - 09.mkv (1.5 GiB)
    • Episode - 10.mkv (1.7 GiB)
    • Episode - 11.mkv (1.7 GiB)
    • Episode - 12.mkv (1.5 GiB)
    • Episode - 13.mkv (1.8 GiB)
    • Episode - 14.mkv (1.8 GiB)
    • Episode - 15.mkv (1.8 GiB)
    • Episode - 16.mkv (2.0 GiB)